<?xml version="1.0" standalone="no"?>
<!DOCTYPE svg PUBLIC "-//W3C//DTD SVG 1.1//EN" "http://www.w3.org/Graphics/SVG/1.1/DTD/svg11.dtd" >
<svg xmlns="http://www.w3.org/2000/svg">
<metadata></metadata>
<defs>
<font id="nixie_oneregular" horiz-adv-x="1171" >
<font-face units-per-em="2048" ascent="1638" descent="-410" />
<missing-glyph horiz-adv-x="573" />
<glyph horiz-adv-x="2048" />
<glyph horiz-adv-x="2048" />
<glyph unicode="&#xd;" horiz-adv-x="681" />
<glyph unicode=" "  horiz-adv-x="573" />
<glyph unicode="&#x09;" horiz-adv-x="573" />
<glyph unicode="&#xa0;" horiz-adv-x="573" />
<glyph unicode="!" horiz-adv-x="548" d="M164 82q0 47 27.5 74.5t74.5 27.5t75 -27.5t28 -74.5t-28 -74.5t-75 -27.5t-74.5 27.5t-27.5 74.5zM236 379v1024q0 31 30.5 31t30.5 -31v-1024q0 -31 -30.5 -31t-30.5 31z" />
<glyph unicode="&#x22;" horiz-adv-x="643" d="M158 973v430q0 31 30.5 31t30.5 -31v-430q0 -31 -30.5 -31t-30.5 31zM424 973v430q0 31 30.5 31t30.5 -31v-430q0 -31 -30.5 -31t-30.5 31z" />
<glyph unicode="#" horiz-adv-x="1556" d="M74 422q0 31 30 31h299l134 528h-293q-31 0 -31 30.5t31 30.5h307l92 367q8 25 29 25q4 0 8 -2q31 -6 22 -37l-88 -353h490l92 367q8 25 29 25q4 0 8 -2q31 -6 22 -37l-88 -353h285q31 0 31 -30.5t-31 -30.5h-301l-131 -528h293q31 0 30.5 -31t-30.5 -31h-309l-91 -366 q-8 -25 -28 -25q-4 0 -8 2q-31 6 -23 37l88 352h-491l-91 -366q-8 -25 -28 -25q-4 0 -8 2q-31 6 -23 37l88 352h-285q-30 0 -30 31zM467 453h489l134 528h-492z" />
<glyph unicode="$" horiz-adv-x="1277" d="M123 31v389q0 31 31 31t30 -31v-154q106 -121 289 -190q59 -23 133 -31v664q-197 53 -290 99t-143 113.5t-50 155.5q0 172 112.5 274.5t358.5 102.5h12v113q0 31 31 30.5t31 -30.5v-117q182 -29 305 -117q43 -31 67 -51q37 -29 35 18v103q0 31 31 31t31 -31v-389 q0 -31 -31 -31t-31 31v143q-113 129 -282 199q-57 25 -125 33v-625q6 -2 119.5 -32t206.5 -76t143.5 -113.5t50.5 -161.5q0 -184 -129 -292.5t-373 -108.5h-18v-113q0 -31 -31 -31t-31 31v117q-213 20 -389 170q-33 27 -33 -21v-102q0 -31 -30 -31q-31 0 -31 31zM184 1096 q0 -80 50.5 -139.5t123 -92.5t137 -51t111.5 -33v613h-12q-209 0 -309.5 -86t-100.5 -211zM668 41h18q213 0 326.5 91t113.5 237q0 80 -50 139t-122.5 92t-146.5 53.5t-139 38.5v-651z" />
<glyph unicode="%" horiz-adv-x="1605" d="M76 1105.5q0 147.5 96 248t241.5 100.5t242 -100.5t96.5 -248t-96.5 -247.5t-242 -100t-241.5 100t-96 247.5zM137 1106q0 -123 80 -205t196.5 -82t196.5 82t80 205t-80 205t-196.5 82t-196.5 -82t-80 -205zM324 25q0 12 8 22l887 1370q10 14 22 14.5t19 -4.5 q29 -20 8 -41l-885 -1372q-18 -23 -38.5 -10.5t-20.5 21.5zM854 327.5q0 147.5 96.5 248t241.5 100.5t241.5 -100.5t96.5 -248t-96.5 -247.5t-241.5 -100t-241.5 100t-96.5 247.5zM915 328q0 -123 80 -205t197 -82t196.5 82t79.5 205t-79.5 204.5t-196.5 81.5t-197 -81.5 t-80 -204.5z" />
<glyph unicode="&#x26;" horiz-adv-x="1431" d="M92 338q0 166 104.5 269.5t297.5 148.5q31 10 2 43q-72 86 -120 169t-48 179q0 141 98 224t270 83q117 0 210 -55.5t147 -141.5q14 -23 -11.5 -38t-46.5 12q-59 76 -128.5 119t-190.5 43t-204 -71t-83 -175q0 -133 156 -307l434 -492q18 -20 33 0l241 365q18 23 44 6 t6 -43l-248 -371q-16 -23 4 -45l147 -168q27 -31 51 -31h136q31 0 30 -30q0 -31 -30 -31h-164q-27 0 -53 31l-154 174q-23 20 -37 0q-195 -246 -493 -246q-174 0 -287 107q-113 106 -113 272zM154 348q0 -145 94 -237q96 -90 244 -91q266 0 448 228q12 14 12 25.5t-10 21.5 l-356 401q-8 14 -21.5 14.5t-29.5 -3.5q-381 -103 -381 -359z" />
<glyph unicode="'" horiz-adv-x="376" d="M158 973v430q0 31 30.5 31t30.5 -31v-430q0 -31 -30.5 -31t-30.5 31z" />
<glyph unicode="(" horiz-adv-x="575" d="M156 532v205q0 260 75.5 483.5t190.5 360.5q14 14 27 14l18 -6q14 -12 14 -22.5t-8 -18.5q-111 -133 -183.5 -342t-72.5 -469v-205q0 -260 72.5 -471t183.5 -340q8 -8 8 -18t-12 -18q-12 -10 -20 -11l-27 15q-115 137 -190.5 360t-75.5 483z" />
<glyph unicode=")" horiz-adv-x="575" d="M94 -295q0 8 8 16q111 129 183.5 340t72.5 471v205q0 260 -72.5 469t-183.5 342q-8 8 -8 18.5t12.5 18.5t20.5 10l27 -14q115 -137 190.5 -360.5t75.5 -483.5v-205q0 -260 -76 -483t-190 -360q-14 -14 -27 -15l-18 7q-14 12 -15 24z" />
<glyph unicode="*" horiz-adv-x="917" d="M137 942q0 12 19 21l219 124q10 4 10 13.5t-10 15.5l-219 125q-18 8 -18.5 20.5t5.5 22.5q14 27 43 10l209 -123q33 -18 33 17v215q0 31 30.5 31t30.5 -31v-215q0 -35 33 -17l209 123q29 16 43 -10q6 -10 6 -22.5t-18 -20.5l-219 -125q-10 -6 -10.5 -15t10.5 -14 l219 -124q18 -8 18 -20.5t-6 -22.5q-14 -27 -43 -11l-209 121q-33 18 -33 -16v-205q0 -31 -30.5 -31t-30.5 31v205q0 35 -33 16l-209 -121q-29 -16 -43 11q-6 10 -6 22z" />
<glyph unicode="+" horiz-adv-x="1026" d="M82 655.5q0 30.5 31 30.5h327q31 0 31 31v338q0 31 30.5 30.5t30.5 -30.5v-338q0 -31 31 -31h348q31 0 31 -30.5t-31 -30.5h-348q-31 0 -31 -31v-338q0 -31 -30.5 -31t-30.5 31v338q0 31 -31 31h-327q-31 0 -31 30.5z" />
<glyph unicode="," horiz-adv-x="495" d="M162 82q0 47 27.5 74.5t74.5 27.5q102 0 103 -123v-30q0 -106 -41 -181t-113 -106q-12 -6 -24.5 -6t-20.5 14q-14 27 12 39q125 55 125 189v16q-27 -16 -59.5 -16t-58 27.5t-25.5 74.5z" />
<glyph unicode="-" d="M156 655.5q0 30.5 30 30.5h799q31 0 31 -30.5t-31 -30.5h-799q-30 0 -30 30.5z" />
<glyph unicode="." horiz-adv-x="495" d="M145 82q0 47 28 74.5t75 27.5t74.5 -27.5t27.5 -74.5t-27.5 -74.5t-74.5 -27.5t-75 27.5t-28 74.5z" />
<glyph unicode="/" horiz-adv-x="1060" d="M53 25q0 12 8 22l887 1370q10 14 22.5 14.5t18.5 -4.5q16 -12 16.5 -22t-8.5 -19l-884 -1372q-10 -14 -22.5 -14t-25 8t-12.5 17z" />
<glyph unicode="0" horiz-adv-x="1339" d="M127 717q0 348 154.5 542.5t388 194.5t388 -194.5t154.5 -542.5t-154.5 -542.5t-388 -194.5t-388 194.5t-154.5 542.5zM188 716.5q0 -321.5 138.5 -498.5t343 -177t343 177t138.5 498.5t-138.5 499t-343 177.5t-343 -177.5t-138.5 -499z" />
<glyph unicode="1" horiz-adv-x="708" d="M53 1162.5q0 11.5 15 21.5l262 219q43 31 55 31q41 0 41 -31v-1311q0 -31 31 -31h143q31 0 31 -30.5t-31 -30.5h-410q-31 0 -30.5 30.5t30.5 30.5h144q31 0 31 31v1239q0 20 -29 0l-227 -194q-23 -23 -39.5 -4.5t-16.5 30z" />
<glyph unicode="2" horiz-adv-x="1218" d="M111 1227q0 10 12 22q208 205 491 205q217 0 344 -117t127 -260t-93 -249.5t-226 -184.5l-262 -143q-131 -70 -225.5 -161t-94.5 -196v-51q0 -31 31 -31h778q31 0 31 31v225q0 31 31 31t30 -31v-286q0 -31 -30 -31h-901q-31 0 -31 31v112q0 164 196 316q57 45 123 80 l263 145q131 70 225 167t94 221t-111 222t-299 99q-125 0 -242.5 -47.5t-205.5 -139.5q-23 -23 -39 -6t-16 27z" />
<glyph unicode="3" horiz-adv-x="1230" d="M111 204.5q0 8.5 8 16.5q27 27 47 6q88 -92 205.5 -139t242.5 -47q203 0 316.5 93t113.5 251t-96 245t-252 87h-215q-31 0 -30 31q0 31 30 30h174q160 0 254.5 82t94.5 219.5t-111 225.5t-295 88q-117 0 -222.5 -48.5t-185.5 -117.5q-23 -20 -44 1t1 42q90 78 200 131 t251 53q219 0 343 -108.5t124 -270.5q0 -246 -256 -323q143 -25 220 -123.5t77 -239.5q0 -186 -133 -299q-133 -111 -359 -110q-283 0 -491 204q-12 12 -12 20.5z" />
<glyph unicode="4" horiz-adv-x="1183" d="M29 374.5q0 8.5 6 20.5q182 272 225 353q156 295 156 716q0 31 30.5 31t30.5 -31q-2 -362 -100 -600q-53 -125 -103.5 -213t-138.5 -211q-14 -31 23 -30h678q31 0 30 30v586q0 31 31 31t31 -31v-586q0 -31 30 -30h164q31 0 31 -31t-31 -31h-164q-31 0 -30 -31v-307 q0 -31 -31 -30.5t-31 30.5v307q0 31 -30 31h-779q-18 0 -24 14q-4 4 -4 12.5z" />
<glyph unicode="5" d="M143 768v635q0 31 31 31h799q31 0 31 -31t-31 -31h-737q-31 0 -31 -31v-481q0 -41 31 -24q162 86 344 86q242 0 368.5 -121t126.5 -330q0 -258 -248 -395t-643 -137q-31 0 -30 30q0 31 30 31q489 0 709 205q121 109 121 277.5t-111.5 273t-324.5 104.5t-373 -110 q-29 -12 -33 -13q-29 0 -29 31z" />
<glyph unicode="6" horiz-adv-x="1222" d="M117 614q0 365 227 623t592 258q31 0 31 -31t-31 -30q-399 0 -629 -353q-37 -57 -55 -108q-10 -31 27 -31h315q256 0 401.5 -129t145.5 -348t-132 -352t-362.5 -133t-380 166.5t-149.5 467.5zM178 614q0 -274 131 -424t338 -149.5t319.5 115t112.5 309t-124 305.5 t-371 111h-334q-29 0 -41 -31q-31 -102 -31 -236z" />
<glyph unicode="7" horiz-adv-x="954" d="M0 1116v287q0 31 31 31h901q29 0 29 -27q0 -8 -7 -21l-151 -253q-180 -311 -262 -537q-111 -307 -111 -565q0 -31 -30.5 -31t-30.5 31q0 532 493 1310q14 31 -22 31h-748q-31 0 -31 -31v-225q0 -31 -30.5 -31t-30.5 31z" />
<glyph unicode="8" horiz-adv-x="1318" d="M117 341.5q0 153.5 98 231.5q39 31 62.5 47.5t80 42t80 34t88.5 32.5q25 10 0 21q-211 86 -280 165q-68 80 -68 191q0 154 126 251t355.5 97t355.5 -97t126 -257q-2 -160 -154 -254q-76 -47 -194 -96q-25 -10 0 -21q205 -78 268 -123q141 -94 141 -256t-152.5 -266 t-390 -104t-390 104t-152.5 257.5zM178 348q0 -137 133 -222t348 -85t348.5 85t133.5 222q0 100 -62 162l-41 39q-61 53 -239 113l-70 22q-53 16 -70 23q-16 -6 -69 -23l-70 -22q-100 -33 -161.5 -66t-77.5 -47l-41 -39q-62 -62 -62 -162zM240 1106q0 -156 184 -246 q88 -43 235 -88q252 78 336 153.5t84 192.5t-106.5 196t-313 79t-313 -79t-106.5 -208z" />
<glyph unicode="9" horiz-adv-x="1222" d="M82 968q0 218 131 352t361.5 134t381.5 -166q150 -168 150 -469q0 -365 -227 -622q-227 -258 -592 -258q-31 0 -31 30q0 31 31 31q329 0 544 242q104 117 134 200q12 35 4 42.5t-25 7.5h-315q-256 0 -401.5 129t-145.5 347zM143 969.5q0 -193.5 124 -305t372 -111.5h334 q31 0 39 25q16 41 24 120.5t8 120.5q0 274 -131 424t-338.5 150t-319.5 -115t-112 -308.5z" />
<glyph unicode=":" horiz-adv-x="516" d="M156 82q0 47 27.5 74.5t74.5 27.5t74.5 -27.5t27.5 -74.5t-27.5 -74.5t-74.5 -27.5t-74.5 27.5t-27.5 74.5zM156 942q0 47 27.5 74.5t74.5 27.5t74.5 -27.5t27.5 -74.5t-27.5 -74.5t-74.5 -27.5t-74.5 27.5t-27.5 74.5z" />
<glyph unicode=";" horiz-adv-x="516" d="M172 82q0 47 27.5 74.5t74.5 27.5q102 0 103 -123v-30q0 -106 -41 -181t-113 -106q-10 -6 -22.5 -6t-22.5 14q-14 27 12 39q125 55 125 189v16q-25 -16 -57.5 -16t-59 27.5t-26.5 74.5zM172 942q0 47 27.5 74.5t75 27.5t75 -27.5t27.5 -74.5t-27.5 -74.5t-75 -27.5 t-75 27.5t-27.5 74.5z" />
<glyph unicode="&#x3c;" horiz-adv-x="1021" d="M68 510.5q0 21.5 20 34.5l770 442q10 8 22.5 8t18.5 -14q8 -14 8 -26.5t-16 -20.5l-703 -406q-29 -18 0 -36l703 -404q16 -12 16 -22.5t-8 -24.5q-6 -14 -18.5 -14t-22.5 8l-768 442q-22 12 -22 33.5z" />
<glyph unicode="=" horiz-adv-x="1187" d="M164 450.5q0 30.5 31 30.5h798q31 0 31 -30.5t-31 -30.5h-798q-31 0 -31 30.5zM164 860q0 31 31 31h798q31 0 31 -31t-31 -31h-798q-31 0 -31 31z" />
<glyph unicode="&#x3e;" horiz-adv-x="1021" d="M115 65.5q0 10.5 16 22.5l703 404q27 18 0 36l-703 406q-16 8 -16 20.5t8 26.5t19.5 14t21.5 -8l770 -442q20 -12 20 -34t-22 -34l-768 -442q-10 -8 -21.5 -8t-19.5 14t-8 24.5z" />
<glyph unicode="?" horiz-adv-x="1110" d="M72 1044q0 186 126 298t344 112t345 -116.5t127 -272.5q0 -109 -45 -188.5t-109 -128.5l-131 -97q-156 -113 -156 -272q0 -31 -30.5 -31t-30.5 31q0 88 33 157.5t82 110.5l211 170q49 39 81.5 103.5t32.5 144.5q0 131 -110.5 229.5t-300 98.5t-299 -93.5t-109.5 -255.5 q0 -31 -30.5 -31t-30.5 31zM440 82q0 47 28 74.5t75 27.5t74.5 -27.5t27.5 -74.5t-27.5 -74.5t-74.5 -27.5t-75 27.5t-28 74.5z" />
<glyph unicode="@" horiz-adv-x="1888" d="M104 532.5q0 401.5 246 661.5q248 260 604.5 260t603 -260t246.5 -662q0 -252 -84 -402t-219 -150q-164 0 -219 163q-12 43 -33 21q-164 -184 -346 -184t-311 139t-129 393t129 393t311 139t346 -184q16 -16 24.5 -8t8.5 29v112q0 31 30.5 31t30.5 -31v-768 q0 -90 42 -137t116 -47q106 0 174 135t68 356q0 379 -226.5 620t-562.5 241t-562 -241t-226 -619.5t226 -619.5t566 -241t506 187q23 23 43.5 0t-0.5 -43q-188 -205 -548.5 -205t-607.5 260t-247 661.5zM524 512q0 -231 111 -352q111 -119 266.5 -119t282.5 143 q57 66 98 144v368q-41 78 -98 144q-127 143 -283 143t-266.5 -120t-110.5 -351z" />
<glyph unicode="A" horiz-adv-x="1482" d="M10 61h133q25 0 41 31l512 1331q8 31 45 31t45 -31l512 -1331q14 -31 41 -31h134q31 0 30 -30q0 -31 -30 -31h-390q-31 0 -30 31q0 31 30 30h123q35 0 21 31l-146 379q-12 29 -49 29h-581q-37 0 -50 -29l-145 -379q-16 -31 20 -31h123q31 0 31 -30q0 -31 -31 -31h-389 q-30 0 -30 29q0 33 30 32zM449 592q-5 -9 -5 -16q0 -15 27 -15h541q26 0 26 16q0 6 -4 15l-280 729q-4 12 -12.5 12t-12.5 -12z" />
<glyph unicode="B" horiz-adv-x="1333" d="M94 31q0 31 31 30h143q31 0 31 31v1249q0 31 -31 31h-143q-31 0 -31 31t31 31h625q164 0 266 -103q102 -102 102 -258q0 -215 -194 -307q297 -57 297 -393q0 -164 -101.5 -268.5t-288.5 -104.5h-706q-31 0 -31 31zM360 92q0 -31 31 -31h440q154 0 241 87.5t87 240.5 q0 154 -87 241t-241 87h-440q-31 0 -31 -31v-594zM360 809q0 -31 31 -31h369q129 0 213 87t84 214t-83 210t-224 83h-359q-31 0 -31 -31v-532z" />
<glyph unicode="C" horiz-adv-x="1423" d="M119 717q0 319 180 528t465 209q248 0 448 -174q33 -27 33 20v103q0 31 31 31t31 -31v-389q0 -31 -31 -31t-31 31v143q-55 63 -129 117q-168 119 -352 119q-252 0 -418 -193.5t-166 -485.5t172 -483q172 -190 459 -190t463 186q20 20 36.5 4t16.5 -26t-10 -21 q-208 -205 -514 -205l-1 1q-306 0 -494.5 209t-188.5 528z" />
<glyph unicode="D" horiz-adv-x="1503" d="M94 30.5q0 30.5 31 30.5h143q31 0 31 31v1249q0 31 -31 31h-143q-31 0 -31 31t31 31h573q309 0 497.5 -205t188.5 -512t-188 -512t-498 -205h-573q-31 0 -31 30.5zM360 92q0 -31 31 -31h307q279 0 452 186.5t173 469t-173 469t-452 186.5h-307q-31 0 -31 -31v-1249z" />
<glyph unicode="E" horiz-adv-x="1257" d="M94 30.5q0 30.5 31 30.5h143q31 0 31 31v1249q0 31 -31 31h-143q-31 0 -31 31t31 31h973q31 0 30 -31v-287q0 -31 -30.5 -31t-30.5 31v225q0 31 -31 31h-645q-31 0 -31 -31v-553q0 -31 31 -30h461q31 0 31 30v103q0 31 30.5 31t30.5 -31v-328q0 -31 -30.5 -31t-30.5 31 v103q0 31 -31 30h-461q-31 0 -31 -30v-574q0 -31 31 -31h666q31 0 30 31v225q0 31 31 31t31 -31v-286q0 -31 -31 -31h-993q-31 0 -31 30.5z" />
<glyph unicode="F" horiz-adv-x="1200" d="M94 30.5q0 30.5 31 30.5h143q31 0 31 31v1249q0 31 -31 31h-143q-31 0 -31 31t31 31h973q31 0 30 -31v-287q0 -31 -30.5 -31t-30.5 31v225q0 31 -31 31h-645q-31 0 -31 -31v-553q0 -31 31 -30h481q31 0 31 30v103q0 31 31 31t31 -31v-328q0 -31 -31 -31t-31 31v103 q0 31 -31 30h-481q-31 0 -31 -30v-574q0 -31 31 -31h164q31 0 31 -30.5t-31 -30.5h-430q-31 0 -31 30.5z" />
<glyph unicode="G" horiz-adv-x="1564" d="M119 715.5q0 318.5 181 528.5t464 210q246 0 448 -174q33 -29 33 20v103q0 31 31 31t31 -31v-389q0 -31 -31 -31t-31 31v143q-55 63 -129 117q-168 119 -352 119q-252 0 -418 -192.5t-166 -484.5t169 -483.5t427 -191.5t469 235v390q0 31 -31 30h-122q-31 0 -31 31t31 31 h389q31 0 31 -30q0 -32 -31 -32h-144q-31 0 -30 -30v-635q0 -31 -31 -31t-31 31v102q0 49 -33 21q-203 -174 -428 -174q-297 0 -481 208.5t-184 527z" />
<glyph unicode="H" horiz-adv-x="1601" d="M94 31q0 31 31 30h143q31 0 31 31v1249q0 31 -31 31h-143q-31 0 -31 31t31 31h389q31 0 31 -31t-31 -31h-123q-31 0 -31 -31v-553q0 -31 31 -30h819q31 0 31 30v553q0 31 -31 31h-123q-31 0 -30 31q0 31 30 31h390q30 0 30 -29q0 -33 -30 -33h-144q-31 0 -30 -31v-1249 q0 -31 30 -31h144q31 0 30 -30q0 -31 -30 -31h-390q-31 0 -30 31q0 31 30 30h123q31 0 31 31v574q0 31 -31 30h-819q-31 0 -31 -30v-574q0 -31 31 -31h123q31 0 31 -30q0 -31 -31 -31h-389q-31 0 -31 31z" />
<glyph unicode="I" horiz-adv-x="659" d="M94 30.5q0 30.5 31 30.5h143q31 0 31 31v1249q0 31 -31 31h-143q-31 0 -31 31t31 31h410q31 0 31 -30q0 -32 -31 -32h-144q-31 0 -31 -31v-1249q0 -31 31 -31h144q31 0 31 -30q0 -31 -31 -31h-410q-31 0 -31 30.5z" />
<glyph unicode="J" horiz-adv-x="1034" d="M35 194.5q0 10.5 22 22.5q20 12 41 -14q60 -76 129.5 -119t187 -43t204 88t86.5 250v962q0 31 -31 31h-144q-31 0 -30 31q0 31 30 31h410q31 0 31 -31t-31 -31h-143q-31 0 -31 -31v-962q0 -190 -101.5 -294.5t-267.5 -104.5q-117 0 -210 55t-146 141q-6 8 -6 18.5z" />
<glyph unicode="K" horiz-adv-x="1425" d="M94 30.5q0 30.5 31 30.5h143q31 0 31 31v1249q0 31 -31 31h-143q-31 0 -31 31t31 31h389q31 0 31 -31t-31 -31h-123q-31 0 -31 -31v-757l697 757q12 10 9 20.5t-19 10.5h-134q-31 0 -30.5 31t30.5 31h420q31 0 31 -31t-31 -31h-131q-23 0 -53 -31l-473 -514l534 -735 q27 -31 52 -31h133q31 0 31 -30q0 -31 -31 -31h-410q-31 0 -31 30.5t31 30.5h133q37 0 10 31l-497 686l-271 -295v-391q0 -31 31 -31h123q31 0 31 -30.5t-31 -30.5h-389q-31 0 -31 30.5z" />
<glyph unicode="L" horiz-adv-x="1183" d="M94 30.5q0 30.5 31 30.5h143q31 0 31 31v1249q0 31 -31 31h-143q-31 0 -31 31t31 31h450q31 0 31 -31t-31 -31h-184q-31 0 -31 -31v-1249q0 -31 31 -31h656q31 0 30 31v225q0 31 31 31t31 -31v-286q0 -31 -31 -31h-983q-31 0 -31 30.5z" />
<glyph unicode="M" horiz-adv-x="1990" d="M94 30.5q0 30.5 31 30.5h143q31 0 31 31v1249q0 31 -31 31h-143q-31 0 -31 31t31 31h225q37 0 51 -31l574 -1270q20 -41 41 0l573 1270q14 31 51 31h226q31 0 31 -30q0 -32 -31 -32h-144q-31 0 -30 -31v-1249q0 -31 30 -31h144q31 0 31 -30q0 -31 -31 -31h-389 q-31 0 -31 30.5t31 30.5h122q31 0 31 31v1198q0 20 -8 17q-4 0 -8 -7l-574 -1269q-16 -31 -44.5 -31t-45.5 31l-573 1269q-8 12 -12.5 6t-4.5 -16v-1198q0 -31 31 -31h123q31 0 31 -30.5t-31 -30.5h-389q-31 0 -31 30.5z" />
<glyph unicode="N" horiz-adv-x="1607" d="M94 30.5q0 30.5 31 30.5h143q31 0 31 31v1249q0 31 -31 31h-143q-31 0 -31 31t31 31h225q33 0 51 -31l840 -1280q4 -8 12.5 -7t8.5 17v1208q0 31 -31 31h-123q-31 0 -31 31t31 31h389q31 0 31 -31t-31 -31h-143q-31 0 -31 -31v-1249q0 -31 31 -31h143q31 0 31 -30.5 t-31 -30.5h-225q-33 0 -51 31l-840 1280q-4 8 -12.5 7t-8.5 -18v-1208q0 -31 31 -31h123q31 0 31 -30.5t-31 -30.5h-389q-31 0 -31 30.5z" />
<glyph unicode="O" horiz-adv-x="1609" d="M119 716.5q0 321.5 188.5 529.5t497.5 208t497.5 -208t188.5 -529.5t-188.5 -529t-497.5 -207.5t-497.5 207.5t-188.5 529zM180 717q0 -295 172 -485.5t452.5 -190.5t453 190.5t172.5 485.5t-172.5 485.5t-453 190.5t-452.5 -190.5t-172 -485.5z" />
<glyph unicode="P" horiz-adv-x="1296" d="M94 31q0 31 31 30h143q31 0 31 31v1249q0 31 -31 31h-143q-31 0 -31 31t31 31h686q203 0 306.5 -110t103.5 -320q0 -211 -103.5 -321t-306.5 -110h-420q-31 0 -31 -30v-451q0 -31 31 -31h164q31 0 31 -30q0 -31 -31 -31h-430q-31 0 -31 31zM360 666q0 -31 31 -31h420 q348 0 348 369q0 368 -346 368h-2h-420q-31 0 -31 -31v-675z" />
<glyph unicode="Q" horiz-adv-x="1611" d="M119 717.5q0 320.5 187.5 528.5t497.5 208t498.5 -208t188.5 -529q0 -264 -128 -456t-353 -253q68 -109 137 -131q68 0 103.5 26.5t53 2t-6 -42t-66.5 -32.5t-84 -15q-133 0 -201 176q-66 -12 -141 -12q-309 0 -498 206q-188 211 -188 531.5zM180 717q0 -295 172 -486 q108 -120 258 -163q59 176 195 176q72 0 116 -46t72 -132q154 43 264 165q172 190 173 486q0 295 -173 485q-172 190 -452 191q-281 0 -453 -191q-172 -190 -172 -485zM674 51q78 -10 141.5 -10t114.5 10q-37 131 -125 131q-94 0 -131 -131z" />
<glyph unicode="R" horiz-adv-x="1409" d="M94 31q0 31 31 30h143q31 0 31 31v1249q0 31 -31 31h-143q-31 0 -31 31t31 31h686q199 0 304.5 -102.5t105.5 -287.5q0 -184 -105.5 -286.5t-304.5 -102.5h-10q-16 0 -23.5 -9t2.5 -21l389 -533q27 -31 52 -31h133q31 0 30 -30q0 -31 -30 -31h-410q-31 0 -31 31t31 30 h133q37 0 10 31l-409 563h-287q-31 0 -31 -30v-533q0 -31 31 -31h123q31 0 31 -30q0 -31 -31 -31h-389q-31 0 -31 31zM360 748q0 -31 31 -31h420q168 0 258 86t90 241q0 156 -90 242t-258 86h-420q-31 0 -31 -31v-593z" />
<glyph unicode="S" horiz-adv-x="1320" d="M143 31v389q0 31 31 31t31 -31v-154q55 -63 131 -112q172 -113 378 -113t319.5 91t113.5 237q0 80 -49 139t-123 92q-82 37 -317.5 101.5t-324.5 108.5t-139.5 111.5t-50.5 155.5q0 172 113 274.5t358 102.5q244 0 449 -174q33 -27 33 20v103q0 31 30 31q31 0 31 -31 v-389q0 -31 -31 -31t-30 31v143q-113 129 -281 199q-90 37 -201 37q-209 0 -309 -86t-100 -211q0 -80 49 -140q49 -59 123 -92q82 -37 317.5 -101.5t324.5 -108.5t139 -111.5t50 -161.5q0 -184 -129 -292.5t-383 -108.5t-458 174q-33 27 -33 -21v-102q0 -31 -31 -31t-31 31z " />
<glyph unicode="T" horiz-adv-x="1265" d="M53 1106v297q0 31 31 31h1106q31 0 31 -31v-297q0 -31 -31 -31t-31 31v235q0 31 -31 31h-430q-31 0 -30 -31v-1249q0 -31 30 -31h144q31 0 30.5 -30.5t-30.5 -30.5h-410q-31 0 -31 30.5t31 30.5h143q31 0 31 31v1249q0 31 -31 31h-430q-31 0 -30 -31v-235q0 -31 -31 -31 t-31 31z" />
<glyph unicode="U" horiz-adv-x="1589" d="M57 1403q0 31 31 31h389q31 0 31 -31t-31 -31h-123q-31 0 -30 -31v-829q0 -213 133 -342t337.5 -129t338 129t133.5 342v829q0 31 -31 31h-123q-31 0 -31 31t31 31h389q31 0 31 -31t-31 -31h-143q-31 0 -31 -31v-829q0 -236 -150.5 -384t-382 -148t-382 148t-150.5 384 v829q0 31 -31 31h-143q-31 0 -31 31z" />
<glyph unicode="V" horiz-adv-x="1482" d="M-21 1403q0 31 31 31h389q31 0 31 -31t-31 -31h-123q-35 0 -20 -31l473 -1228q4 -12 12.5 -12.5t12.5 12.5l473 1228q14 31 -21 31h-123q-31 0 -30.5 31t30.5 31h390q31 0 31 -30q0 -32 -31 -32h-134q-25 0 -41 -31l-512 -1331q-8 -31 -43 -31l-1 1q-36 0 -46 30 l-512 1331q-16 31 -41 31h-133q-31 0 -31 31z" />
<glyph unicode="W" horiz-adv-x="2074" d="M-21 1403q0 31 31 31h389q31 0 31 -31t-31 -31h-123q-35 0 -20 -31l367 -1183q4 -12 12 -12.5t12 12.5l350 1245q10 31 41 31t41 -31l348 -1245q4 -12 12.5 -12.5t12.5 12.5l367 1183q16 31 -21 31h-123q-31 0 -30.5 31t30.5 31h389q31 0 31 -31t-31 -31h-133 q-31 0 -41 -31l-411 -1331q-8 -31 -38 -31l-1 1q-31 0 -39 30l-350 1250q-4 12 -14.5 12t-14.5 -12l-348 -1250q-10 -31 -38 -31l-1 1q-29 0 -39 30l-412 1331q-8 31 -41 31h-133q-31 0 -31 31z" />
<glyph unicode="X" horiz-adv-x="1353" d="M14 30.5q0 30.5 31 30.5h123q33 0 51 31l410 621q12 18 0 37l-389 591q-18 31 -52 31h-122q-31 0 -31 31t31 31h389q31 0 30.5 -31t-30.5 -31h-123q-16 0 -22.5 -9t1.5 -22l351 -532q14 -20 28 0l352 532q8 12 2 21.5t-22 9.5h-123q-31 0 -31 31t31 31h389q31 0 31 -31 t-31 -31h-123q-33 0 -51 -31l-389 -591q-12 -18 0 -37l410 -621q18 -31 51 -31h123q31 0 31 -30q0 -31 -31 -31h-389q-31 0 -31 30.5t31 30.5h122q16 0 22.5 9.5t-1.5 21.5l-373 563q-14 20 -28 0l-371 -563q-8 -12 -2 -21.5t22 -9.5h123q31 0 31 -30.5t-31 -30.5h-389 q-31 0 -31 30.5z" />
<glyph unicode="Y" horiz-adv-x="1284" d="M-21 1403q0 31 31 31h389q31 0 31 -31t-31 -31h-123q-16 0 -22 -9t2 -22l371 -647q14 -20 28 0l373 647q8 12 2 21.5t-22 9.5h-123q-31 0 -31 31t31 31h389q31 0 31 -31t-31 -31h-123q-33 0 -51 -31l-426 -739v-510q0 -31 31 -31h143q31 0 31 -30.5t-31 -30.5h-410 q-31 0 -30.5 30.5t30.5 30.5h144q31 0 30 31v506l-428 743q-18 31 -51 31h-123q-31 0 -31 31z" />
<glyph unicode="Z" horiz-adv-x="1259" d="M102 35q0 8 25 47l920 1257q12 12 6 22.5t-29 10.5h-819q-31 0 -31 -31v-225q0 -31 -30.5 -31t-30.5 31v287q0 31 30 31h983q31 0 31 -35q0 -8 -24 -47l-920 -1258q-12 -12 -6 -22.5t29 -10.5h819q31 0 30 31v225q0 31 31 31t31 -31v-286q0 -31 -31 -31h-983 q-31 0 -31 35z" />
<glyph unicode="[" horiz-adv-x="593" d="M219 -297v1864q0 31 31 30h266q31 0 31 -30.5t-31 -30.5h-205q-31 0 -30 -31v-1741q0 -31 30 -30h205q31 0 31 -31t-31 -31h-266q-31 0 -31 31z" />
<glyph unicode="\" horiz-adv-x="1062" d="M55 1403q0 12 17 24q6 4 18 4.5t23 -14.5l886 -1370q8 -10 8.5 -22.5t-12.5 -16.5q-12 -8 -24.5 -8t-22.5 14l-885 1372q-8 8 -8 17z" />
<glyph unicode="]" horiz-adv-x="593" d="M47 -297q0 31 31 31h205q31 0 30 30v1741q0 31 -30 31h-205q-31 0 -31 30.5t31 30.5h266q31 0 31 -30v-1864q0 -31 -31 -31h-266q-31 0 -31 31z" />
<glyph unicode="^" horiz-adv-x="956" d="M43 935q0 11 6 19l395 539q12 23 34 23t34 -23l395 -539q6 -8 6 -19t-12 -20.5t-24.5 -9.5t-22.5 17l-356 485q-8 12 -19.5 12t-19.5 -12l-357 -485q-10 -16 -22 -16.5t-24.5 9t-12.5 20.5z" />
<glyph unicode="_" horiz-adv-x="1449" d="M387 -133q0 31 31 31h614q31 0 31 -31t-31 -31h-614q-31 0 -31 31z" />
<glyph unicode="`" horiz-adv-x="495" d="M123 1445.5q0 12.5 16 18.5q8 10 20.5 10.5t22.5 -18.5l183 -260q8 -10 8 -20t-15 -21q-10 -6 -22 -6t-21 12l-184 262q-8 10 -8 22.5z" />
<glyph unicode="a" d="M84 285q0 135 112.5 222t297.5 87h337q31 0 31 31v82q0 119 -90 197.5t-221 78.5t-215 -36t-118 -62.5t-51 -2t5 41.5q148 120 371 120q172 0 276.5 -97t104.5 -240v-615q0 -31 30 -31h144q31 0 30 -30q0 -31 -30 -31h-205q-31 0 -31 31v114q0 20 -8 28.5t-25 -7.5 q-55 -70 -153 -128t-205 -58q-190 0 -288.5 85t-98.5 220zM145 285.5q0 -107.5 79 -176t239 -68.5q199 0 350 201q27 35 49 75v185q0 30 -29 30h-2h-337q-178 0 -263.5 -69.5t-85.5 -177z" />
<glyph unicode="b" horiz-adv-x="1226" d="M-8 1403q0 31 31 31h204q31 0 31 -31v-348q0 -31 31 -31h276q260 0 406 -133q147 -133 147 -381q0 -246 -123 -388t-327 -142q-127 0 -230 59q-96 61 -147 127q-16 16 -24.5 8t-8.5 -29v-114q0 -31 -31 -31t-30 31v1310q0 31 -31 31h-143q-31 0 -31 31zM258 317 q47 -82 104 -139q137 -137 308.5 -137t279 124t107.5 346t-129 337t-363 115h-276q-31 0 -31 -31v-615z" />
<glyph unicode="c" horiz-adv-x="1124" d="M104 512q0 236 129 384t327 148t351 -153q33 -29 33 20v82q0 31 31 31t31 -31v-327q0 -31 -31 -31t-31 31v102q-166 215 -389 215q-166 0 -279 -131q-111 -132 -111 -342q-1 -212 117 -341q116 -128 308 -128q188 0 315 102q33 25 51.5 41.5t28.5 11t20.5 -17.5 t10.5 -21.5t-19 -27.5q-68 -59 -165 -104t-246 -45q-217 0 -349.5 148t-132.5 384z" />
<glyph unicode="d" horiz-adv-x="1292" d="M102 510q0 246 146.5 380t406.5 134h277q31 0 31 31v286q0 31 -31 31h-164q-31 0 -31 31t31 31h225q31 0 31 -31v-1311q0 -31 31 -31h143q31 0 31 -30q0 -31 -31 -31h-205q-31 0 -30 31v114q0 20 -8.5 28.5t-24.5 -7.5q-51 -68 -150.5 -127t-214.5 -59q-217 0 -340 142 t-123 388zM164 511q0 -222 107.5 -346t278.5 -124t308 137q57 57 105 139v615q0 31 -31 31h-277q-233 0 -362 -115t-129 -337z" />
<glyph unicode="e" horiz-adv-x="1161" d="M106 512q0 233 132.5 382.5t346.5 149.5t349 -135t135 -325v-31q0 -61 -61 -61h-807q-35 0 -31 -31q12 -178 121.5 -299t301 -121t316.5 102q33 25 50.5 41.5t27.5 11t25.5 -22.5t-8.5 -38q-74 -63 -170.5 -109t-245.5 -46q-217 0 -349.5 149.5t-132.5 382.5zM172 578 q0 -25 29 -25h776q31 0 31 31q0 164 -120 281.5t-303.5 117.5t-298 -129t-114.5 -276z" />
<glyph unicode="f" horiz-adv-x="847" d="M104 61h144q31 0 31 31v840q0 31 -31 31h-144q-31 0 -30 30q0 31 30 31h144q31 0 31 31v20q0 184 83.5 281.5t243.5 97.5q86 0 149.5 -32.5t96.5 -65.5t33 -45.5t-17 -26.5q-16 -16 -43.5 11.5t-84 62.5t-134.5 35q-129 0 -197.5 -81t-68.5 -237v-20q0 -31 31 -31h327 q31 0 31 -31t-31 -30h-327q-31 0 -31 -31v-840q0 -31 31 -31h164q31 0 30 -30q0 -31 -30 -31h-431q-30 0 -30 29q0 33 30 32z" />
<glyph unicode="g" horiz-adv-x="1239" d="M51 -113q0 70 40 137.5t114 104.5q14 6 14 17.5t-26.5 20.5t-57.5 42q-33 33 -33 82q0 80 109 127q27 14 -2 47q-75 83 -75 235q0 149 112 246q114 98 321 98t324 -75q65 65 161 65h3h133q31 0 31 -30v-236q0 -31 -31 -31t-31 31v184q0 31 -31 31h-71q-43 0 -97 -27 q-25 -25 -2 -45q78 -92 78 -239.5t-113.5 -245.5t-318.5 -98t-307 65q-59 -16 -95 -38.5t-36 -69.5q0 -80 164 -80h256q412 0 503 -189q29 -57 29 -132q0 -224 -285 -290q-98 -24 -236 -24h-11q-412 0 -504 188q-29 57 -29 129zM113 -113q0 -256 471 -256q371 0 448 156 q23 44 23 92v8q0 256 -471 256t-471 -256zM195 685q0 -138 91 -217t298 -79t298 79t91 217t-91 218t-298 80t-298 -80t-91 -218z" />
<glyph unicode="h" horiz-adv-x="1333" d="M39 30.5q0 30.5 31 30.5h143q31 0 31 31v1249q0 31 -31 31h-143q-31 0 -31 31t31 31h204q31 0 31 -31v-524q0 -20 8.5 -28.5t24.5 7.5q166 186 360.5 186t300 -105t105.5 -304v-543q0 -31 31 -31h143q31 0 31 -30.5t-31 -30.5h-389q-31 0 -31 30.5t31 30.5h123 q31 0 30 31v543q0 174 -90 261t-245.5 87t-294.5 -139q-59 -61 -107 -137v-615q0 -31 31 -31h123q31 0 30.5 -30.5t-30.5 -30.5h-389q-31 0 -31 30.5z" />
<glyph unicode="i" horiz-adv-x="585" d="M106 1024h205q31 0 31 -31v-901q0 -31 31 -31h143q31 0 31 -30.5t-31 -30.5h-410q-30 0 -30 30.5t30 30.5h144q31 0 31 31v840q0 31 -31 31h-144q-31 0 -31 30q0 31 31 31zM219 1270q0 35 23.5 58.5t58.5 23.5t58.5 -23.5t23.5 -58.5t-23.5 -58.5t-58.5 -23.5t-58.5 23.5 t-23.5 58.5z" />
<glyph unicode="j" horiz-adv-x="501" d="M-279 -285q0 11 11 19q20 20 49 -6q104 -96 219 -96q1 -1 2 -1q113 0 178 75q64 75 64 222v1004q0 31 -31 31h-143q-31 0 -31 30q0 31 31 31h204q31 0 31 -31v-1065q0 -174 -81 -266t-234.5 -92t-253.5 117q-15 15 -15 28zM182 1270q0 35 23.5 58.5t58.5 23.5t58.5 -23.5 t23.5 -58.5t-23.5 -58.5t-58.5 -23.5q0 -1 -1 -1q-34 0 -58 23q-23 25 -23 60z" />
<glyph unicode="k" horiz-adv-x="1189" d="M39 30.5q0 30.5 31 30.5h143q31 0 31 31v1249q0 31 -31 31h-143q-31 0 -31 31t31 31h204q31 0 31 -31v-1008l492 537q12 10 9 20.5t-20 10.5h-114q-31 0 -31 30.5t31 30.5h401q31 0 31 -30.5t-31 -30.5h-131q-23 0 -53 -31l-307 -334l368 -506q27 -31 51 -31h134 q31 0 31 -30q0 -31 -31 -31h-390q-31 0 -30.5 30.5t30.5 30.5h113q37 0 10 31l-331 457l-232 -254v-203q0 -31 31 -31h123q31 0 30.5 -30.5t-30.5 -30.5h-389q-31 0 -31 30.5z" />
<glyph unicode="l" horiz-adv-x="548" d="M39 30.5q0 30.5 31 30.5h143q31 0 31 31v1249q0 31 -31 31h-143q-31 0 -31 31t31 31h204q31 0 31 -31v-1311q0 -31 31 -31h143q31 0 31 -30.5t-31 -30.5h-409q-31 0 -31 30.5z" />
<glyph unicode="m" horiz-adv-x="1964" d="M73 30.5q0 30.5 31 30.5h144q31 0 31 31v840q0 31 -31 31h-144q-31 0 -30.5 30.5t30.5 30.5h205q31 0 31 -31v-114q0 -53 33 -21q160 186 315 186q119 0 207 -67.5t123 -194.5q41 72 98 131q127 131 274.5 131t245 -107.5t97.5 -301.5v-543q0 -31 30 -31h144q31 0 31 -30 q0 -31 -31 -31h-389q-31 0 -31 30.5t31 30.5h122q31 0 31 31v543q0 168 -82 258t-207 90t-252 -143q-57 -66 -98 -144q4 -45 4 -61v-543q0 -31 31 -31h123q31 0 31 -30.5t-31 -30.5h-369q-31 0 -30.5 30.5t30.5 30.5h123q31 0 31 31v543q0 168 -82 258t-206 90t-247 -139 q-53 -59 -100 -137v-615q0 -31 31 -31h123q31 0 30.5 -30.5t-30.5 -30.5h-390q-31 0 -31 30.5z" />
<glyph unicode="n" horiz-adv-x="1368" d="M73 30.5q0 30.5 31 30.5h144q31 0 31 31v840q0 31 -31 31h-144q-31 0 -30.5 30.5t30.5 30.5h205q31 0 31 -31v-114q0 -20 8 -28.5t25 7.5q166 186 360.5 186t300 -105t105.5 -304v-543q0 -31 30 -31h144q31 0 31 -30q0 -31 -31 -31h-389q-31 0 -31 30.5t31 30.5h123 q31 0 30 31v543q0 174 -90 261t-245.5 87t-295.5 -139q-61 -61 -106 -137v-615q0 -31 31 -31h123q31 0 30.5 -30.5t-30.5 -30.5h-390q-31 0 -31 30.5z" />
<glyph unicode="o" horiz-adv-x="1212" d="M104 512q0 238 139.5 385t362.5 147t362.5 -147t139.5 -385t-139.5 -385t-362.5 -147t-362.5 147t-139.5 385zM166 511q0 -214 120 -342t320.5 -128t320.5 128t120 342t-121 343t-319.5 129t-319.5 -129t-121 -343z" />
<glyph unicode="p" horiz-adv-x="1273" d="M39 -379q0 31 31 31h143q31 0 31 31v1249q0 31 -31 31h-143q-31 0 -31 30q0 31 31 31h204q31 0 31 -31v-114q0 -20 8.5 -28.5t24.5 7.5q51 66 149.5 126t227.5 60q205 0 327.5 -144t122.5 -388t-147 -379q-147 -133 -406 -133h-276q-31 0 -31 -31v-286q0 -31 31 -31h164 q31 0 30 -31q0 -31 -30 -31h-430q-31 0 -31 31zM305 92q0 -31 31 -31h276q236 0 364 115t128 338t-107.5 346t-277.5 123t-309 -139q-57 -57 -105 -137v-615z" />
<glyph unicode="q" horiz-adv-x="1253" d="M109 511q0 245 122.5 389t327.5 144q129 0 227 -61q96 -53 150 -125q16 -16 24.5 -8t8.5 29v114q0 31 30 31q31 0 31 -31v-1310q0 -31 31 -31h143q31 0 31 -31t-31 -31h-430q-31 0 -31 31t31 31h164q31 0 31 31v286q0 31 -31 31h-276q-260 0 -406 133q-147 133 -147 378z M170 513q0 -222 129 -337t363 -115h276q31 0 31 31v615q-39 72 -105 137q-139 139 -309 139t-277.5 -124t-107.5 -346z" />
<glyph unicode="r" horiz-adv-x="1038" d="M104 61h144q31 0 31 31v840q0 31 -31 31h-144q-31 0 -30 30q0 31 30 31h205q31 0 31 -31v-162q0 -26 11 -26t32 24q76 86 197.5 150.5t271.5 64.5h100q31 0 31 -30v-256q0 -31 -30.5 -31t-30.5 31v194q0 31 -31 31h-39q-258 0 -430 -203q-49 -57 -82 -114v-574 q0 -31 31 -31h164q31 0 30 -30q0 -31 -30 -31h-431q-30 0 -30 29q0 33 30 32z" />
<glyph unicode="s" horiz-adv-x="1134" d="M123 31v327q0 31 31 31t30 -31v-102q84 -119 230 -182q76 -33 180 -33q178 0 273.5 62.5t95.5 162.5q0 135 -195 180q-90 20 -217 39q-125 18 -182 35q-123 33 -184.5 91.5t-61.5 166t109.5 187t306 79.5t350.5 -153q18 -20 25.5 -8t7.5 28v82q0 31 30 31q31 0 31 -31 v-327q0 -31 -31 -31t-30 31v102q-88 117 -226 182q-72 33 -161 33q-168 0 -259.5 -60.5t-91.5 -152.5t79 -142t241 -75q70 -12 141.5 -22.5t128.5 -22.5q119 -27 184.5 -82t65.5 -169t-107.5 -195.5t-322.5 -81.5q-168 0 -311 98q-41 29 -63.5 52.5t-29 11t-6.5 -28.5v-82 q0 -31 -30 -31q-31 0 -31 31z" />
<glyph unicode="t" horiz-adv-x="825" d="M31 993q0 31 30 31h144q31 0 31 31v348q0 31 30 31q31 0 31 -31v-348q0 -31 31 -31h348q31 0 31 -31t-31 -30h-348q-31 0 -31 -31v-594q0 -147 65.5 -222t181 -75t224.5 102q20 20 36.5 4t16.5 -26q2 -10 -14 -27q-49 -49 -98 -74q-123 -42 -144 -42h-1q-18 2 -21 2 q-143 0 -225 92t-82 266v594q0 31 -31 31h-144q-31 0 -30 30z" />
<glyph unicode="u" horiz-adv-x="1331" d="M22 993.5q0 30.5 31 30.5h205q31 0 31 -31v-604q0 -174 90 -261t245.5 -87t293.5 137q61 63 108 139v615q0 31 -31 31h-143q-31 0 -31 30.5t31 30.5h205q31 0 30 -31v-901q0 -31 31 -31h144q31 0 31 -30q0 -31 -31 -31h-205q-31 0 -31 31v114q0 20 -8 28.5t-25 -7.5 q-166 -186 -360.5 -186t-300 105t-105.5 304v543q0 31 -30 31h-144q-31 0 -31 30.5z" />
<glyph unicode="v" horiz-adv-x="1277" d="M-2 993.5q0 30.5 31 30.5h389q31 0 31 -30.5t-31 -30.5h-127q-37 0 -21 -31l357 -834q4 -12 12 -12t12 12l357 834q16 31 -21 31h-127q-31 0 -31 30.5t31 30.5h389q31 0 31 -30.5t-31 -30.5h-133q-27 0 -41 -31l-395 -922q-16 -31 -40 -31l-1 1q-25 0 -41 30l-395 922 q-14 31 -41 31h-133q-31 0 -31 30.5z" />
<glyph unicode="w" horiz-adv-x="1769" d="M-2 993.5q0 30.5 31 30.5h389q31 0 31 -30.5t-31 -30.5h-123q-37 0 -21 -31l277 -785q4 -12 12 -12t12 12l269 846q8 31 41 31t41 -31l268 -846q4 -12 12 -12t13 12l276 785q16 31 -20 31h-123q-31 0 -31 30.5t31 30.5h389q31 0 31 -30.5t-31 -30.5h-133q-31 0 -41 -31 l-326 -922q-8 -31 -34 -31l-1 1q-26 0 -35 30l-266 840q-4 16 -20.5 16t-20.5 -16l-266 -840q-8 -31 -34 -31v1q-26 0 -36 30l-325 922q-10 31 -41 31h-133q-31 0 -31 30.5z" />
<glyph unicode="x" horiz-adv-x="1185" d="M45 30.5q0 30.5 31 30.5h123q25 0 51 31l293 408q12 18 0 37l-283 395q-18 31 -51 31h-123q-31 0 -31 30.5t31 30.5h389q31 0 31 -30.5t-31 -30.5h-123q-16 0 -23 -9.5t3 -21.5l246 -342q14 -20 28 0l248 342q10 12 3 21.5t-23 9.5h-123q-31 0 -31 30.5t31 30.5h389 q31 0 30.5 -30.5t-30.5 -30.5h-123q-33 0 -51 -31l-283 -395q-12 -18 0 -37l293 -408q27 -31 51 -31h123q31 0 31 -30.5t-31 -30.5h-389q-31 0 -31 30.5t31 30.5h123q16 0 23 9.5t-3 21.5l-258 357q-14 20 -28 0l-256 -357q-10 -12 -3 -21.5t23 -9.5h123q31 0 31 -30.5 t-31 -30.5h-389q-31 0 -31 30.5z" />
<glyph unicode="y" horiz-adv-x="1263" d="M-2 993q0 31 31 31h389q31 0 31 -31t-31 -30h-127q-37 0 -21 -31l387 -809q10 -29 23 0l313 809q14 31 -20 31h-127q-31 0 -31 30q0 31 31 31h389q31 0 31 -31t-31 -30h-133q-27 0 -41 -31l-389 -1004q-80 -201 -132.5 -258t-100.5 -78.5t-105 -21.5q-96 0 -162 36 t-100 81q-25 25 -4.5 46t43.5 1q35 -35 87 -69t139 -34t148.5 71t120.5 226l21 54q8 27 0 49l-424 901q-16 31 -41 31h-133q-31 0 -31 30z" />
<glyph unicode="z" horiz-adv-x="1101" d="M100 35q0 18 25 47l754 848q12 10 6 21.5t-29 11.5h-651q-31 0 -31 -31v-195q0 -31 -30.5 -30.5t-30.5 30.5v256q0 31 30 31h826q30 0 30 -33q0 -20 -24 -49l-754 -848q-12 -10 -6 -21.5t29 -11.5h653q31 0 31 31v195q0 31 30.5 30.5t30.5 -30.5v-256q0 -31 -31 -31h-827 q-31 0 -31 35z" />
<glyph unicode="{" horiz-adv-x="663" d="M43 635q0 31 31 31h20q195 4 195 204v461q0 123 71.5 194.5t194.5 71.5h31q31 0 30.5 -30.5t-30.5 -30.5h-31q-205 0 -205 -205v-461q0 -180 -143 -235q143 -55 143 -236v-460q0 -205 205 -205h31q31 0 30.5 -31t-30.5 -31h-31q-123 0 -194.5 72t-71.5 195v460 q0 199 -195 205h-20q-31 0 -31 31z" />
<glyph unicode="|" horiz-adv-x="503" d="M221 -379v1782q0 31 31 31t31 -31v-1782q0 -31 -31 -31t-31 31z" />
<glyph unicode="}" horiz-adv-x="663" d="M47 -297q0 31 31 31h31q205 0 204 205v460q0 180 144 236q-143 55 -144 235v461q0 205 -204 205h-31q-31 0 -31 30.5t31 30.5h31q123 0 194.5 -71.5t71.5 -194.5v-461q0 -201 194 -204h21q31 0 31 -31t-31 -31h-21q-195 -6 -194 -205v-460q0 -123 -72 -195t-194 -72h-31 q-31 0 -31 31z" />
<glyph unicode="~" horiz-adv-x="1073" d="M160 573q0 205 205 205q53 0 102 -30q49 -31 82 -68q109 -88 164 -96q143 0 143 143q0 31 31 31t31 -31q0 -205 -205 -205q-53 0 -103 31q-49 29 -82 65q-86 98 -163 99q-143 0 -144 -144q0 -31 -30.5 -31t-30.5 31z" />
<glyph unicode="&#xa1;" horiz-adv-x="491" d="M143 942q0 47 28 74.5t75 27.5t74.5 -27.5t27.5 -74.5t-27.5 -74.5t-74.5 -27.5t-75 27.5t-28 74.5zM215 -379v1024q0 31 30.5 31t30.5 -31v-1024q0 -31 -30.5 -31t-30.5 31z" />
<glyph unicode="&#xa2;" horiz-adv-x="1183" d="M117 512q0 236 128 383t312 149v113q0 31 31 31t30 -31v-115q168 -18 306 -151q33 -29 32 20v82q0 31 31 31t31 -31v-327q0 -31 -31 -31t-31 31v102q-145 188 -338 211v-938q184 6 304 102q29 25 47 41.5t28.5 11t20.5 -17.5t10 -21.5t-18 -27.5q-166 -145 -392 -149 v-113q0 -31 -30 -31q-31 0 -31 31v115q-188 12 -314 153t-126 377zM178 508q0 -211 111.5 -333t267.5 -134v942q-157 -6 -268 -131q-111 -133 -111 -344z" />
<glyph unicode="&#xa3;" horiz-adv-x="1183" d="M74 30.5q0 30.5 30 30.5q98 0 162 76t64 221v308q0 31 -31 30h-143q-31 0 -31 31t31 31h143q31 0 31 30v287q0 182 82 281q84 98 223 98t224 -88t85 -229q0 -31 -30.5 -31t-30.5 31q0 117 -68 186q-70 70 -180.5 70t-177 -81t-66.5 -237v-287q0 -31 31 -30h246 q31 0 30.5 -31t-30.5 -31h-246q-31 0 -31 -30v-308q0 -207 -112 -297h542q94 0 160 66t66 170q0 31 30.5 31t30.5 -31q0 -129 -82 -213t-205 -84h-717q-30 0 -30 30.5z" />
<glyph unicode="&#xa4;" horiz-adv-x="1337" d="M133 30.5q0 30.5 31 30.5h143q31 0 31 31v277q0 31 -31 30h-143q-31 0 -31 31t31 31h143q31 0 31 31v92q0 31 -31 30h-143q-31 0 -31 31t31 31h143q31 0 31 31v634q0 31 -31 31h-143q-31 0 -31 31t31 31h686q199 0 304.5 -107.5t105.5 -302.5t-105.5 -302.5 t-304.5 -107.5h-420q-31 0 -31 -30v-92q0 -31 31 -31h574q31 0 30.5 -31t-30.5 -31h-574q-31 0 -31 -30v-277q0 -31 31 -31h164q31 0 31 -30.5t-31 -30.5h-430q-31 0 -31 30.5zM399 707q0 -31 31 -31h420q170 0 259 89t89 259t-89 259t-259 89h-420q-31 0 -31 -31v-634z" />
<glyph unicode="&#xa5;" horiz-adv-x="1439" d="M57 1403q0 31 31 31h389q31 0 31 -31t-31 -31h-123q-16 0 -22 -9t2 -22l371 -647q14 -20 28 0l373 647q8 12 2 21.5t-23 9.5h-122q-31 0 -31 31t31 31h389q31 0 30.5 -31t-30.5 -31h-123q-33 0 -51 -31l-396 -686q-16 -31 21 -30h235q31 0 31 -31t-31 -31h-256 q-31 0 -30 -31v-122q0 -31 30 -31h256q31 0 31 -31t-31 -31h-256q-31 0 -30 -30v-195q0 -31 30 -31h144q31 0 30.5 -30.5t-30.5 -30.5h-410q-31 0 -31 30.5t31 30.5h143q31 0 31 31v195q0 31 -31 30h-256q-31 0 -30.5 31t30.5 31h256q31 0 31 31v122q0 31 -31 31h-256 q-31 0 -30.5 31t30.5 31h236q33 0 18 30l-395 686q-18 31 -51 31h-123q-31 0 -31 31z" />
<glyph unicode="&#xa6;" horiz-adv-x="524" d="M231 338q0 31 31 31t31 -31v-717q0 -31 -31 -31t-31 31v717zM231 686v717q0 31 31 31t31 -31v-717q0 -31 -31 -31t-31 31z" />
<glyph unicode="&#xa7;" horiz-adv-x="1191" d="M129 540.5q0 102.5 57.5 175t159.5 101.5q10 4 10 10q0 4 -28 17q-82 33 -134.5 96.5t-52.5 149.5q0 162 115 253t318.5 91t357.5 -78q43 -20 68.5 -40t8 -44.5t-41.5 -5.5q-51 41 -156.5 73.5t-218.5 32.5q-201 0 -295 -75.5t-94 -178t60.5 -153t154.5 -85t206.5 -62 t186.5 -56.5q131 -51 191.5 -117.5t60.5 -165t-58.5 -171t-158.5 -101.5q-10 -4 -10 -10.5t27.5 -17.5t66.5 -36q37 -20 63 -53q57 -68 57.5 -191.5t-114.5 -216t-318 -92.5q-205 0 -360 78q-45 20 -68.5 40t-6 44.5t41.5 5.5q51 -41 156.5 -73.5t218.5 -32.5 q199 0 294 75.5t95 178t-60.5 153t-154.5 85t-206.5 62t-210 65.5t-163 102.5t-65.5 167zM190 553q0 -129 115 -191q59 -35 168 -63.5t139.5 -36.5t61.5 -16q168 0 248 65q80 70 79 148q0 141 -114 203q-59 35 -168 63.5t-139.5 36.5t-61.5 16q-162 0 -245 -64.5t-83 -160.5 z" />
<glyph unicode="&#xa8;" horiz-adv-x="491" d="M0 1229q0 35 23.5 58.5t58.5 23.5t58.5 -23.5t23.5 -58.5t-23.5 -58.5t-58.5 -23.5t-58.5 23.5t-23.5 58.5zM328 1229q0 35 23.5 58.5t58 23.5t58.5 -23.5t24 -58.5t-24 -58.5t-58.5 -23.5t-58 23.5t-23.5 58.5z" />
<glyph unicode="&#xa9;" horiz-adv-x="1798" d="M111 717q0 342 228 570.5t560 228.5t560.5 -228.5t228.5 -570.5t-228.5 -570.5t-560.5 -228.5t-560 228.5t-228 570.5zM172 716.5q0 -323.5 206 -530t521 -206.5t521 206.5t206 530t-206 530.5t-521 207t-521 -207t-206 -530.5zM469 716q0 222 115 355q115 135 286.5 135 t313.5 -141q33 -25 33 20v82q0 31 30.5 31t30.5 -31v-307q0 -31 -30.5 -31t-30.5 31v82q-37 45 -101 102q-127 102 -237 103q-152 0 -250.5 -117t-98.5 -314.5t104.5 -313t274.5 -115.5q219 0 346 207q16 23 39 4q14 -8 15 -21q0 -12 -11 -26q-143 -225 -389 -226 q-198 0 -319 134.5t-121 356.5z" />
<glyph unicode="&#xaa;" horiz-adv-x="860" d="M123 985q0 92 62.5 147.5t183.5 55.5h153q31 0 31 31v8q0 156 -164 155q-109 0 -180 -75q-20 -20 -43 0t0 43q33 41 94.5 67.5t128.5 26.5q106 0 165.5 -60.5t59.5 -156.5v-336q0 -31 31 -31h41q31 0 31 -30.5t-31 -30.5h-102q-31 0 -31 30v52q-92 -92 -198.5 -92.5 t-169 52t-62.5 144.5zM184 986.5q0 -60.5 46 -98.5t120 -38t144 55q37 29 59 58v133q0 31 -31 30h-153q-90 0 -137.5 -39.5t-47.5 -100z" />
<glyph unicode="&#xab;" horiz-adv-x="1021" d="M80 510q0 17 16 33l473 471q10 10 21 10q12 0 28.5 -16.5t-6.5 -36.5l-442 -443q-18 -18 0 -36l438 -439q23 -20 6.5 -36.5t-28 -16.5t-21.5 10l-467 465q-18 18 -18 35zM428 510q0 17 16 33l381 379q10 10 21.5 10t22 -10.5t10.5 -21.5t-11 -21l-350 -351q-18 -18 0 -36 l346 -347q10 -10 10 -21t-10 -21.5t-21.5 -10.5t-21.5 10l-375 373q-18 18 -18 35z" />
<glyph unicode="&#xac;" horiz-adv-x="1212" d="M188 676q0 31 31 31h799q31 0 31 -31v-215q0 -31 -31 -31t-31 31v153q0 31 -31 31h-737q-31 0 -31 31z" />
<glyph unicode="&#xad;" d="M156 655.5q0 30.5 30 30.5h799q31 0 31 -30.5t-31 -30.5h-799q-30 0 -30 30.5z" />
<glyph unicode="&#xae;" horiz-adv-x="1798" d="M111 716.5q0 342.5 228 571t560 228.5t560.5 -228.5t228.5 -570.5t-228.5 -570.5t-560.5 -228.5t-561 227q-227 229 -227 571.5zM172 716.5q0 -323.5 206 -530t521 -206.5t521 206.5t206 530t-206 530.5t-521 207t-521 -207t-206 -530.5zM469 256q0 31 31 31h102 q31 0 31 30v779q0 31 -31 30h-102q-31 0 -31 31t31 31h491q137 0 217 -72t80 -184.5t-80 -184t-217 -71.5q-16 0 -23 -9.5t3 -21.5l213 -328q27 -31 51 -30h92q31 0 31 -31t-31 -31h-297q-31 0 -31 31t31 31h68q37 0 10 30l-234 359h-149q-31 0 -31 -31v-328q0 -31 31 -30 h61q31 0 31 -31t-31 -31h-286q-31 0 -31 31zM694 768q0 -31 31 -31h266q111 0 173.5 56.5t62.5 138.5t-62.5 138t-173.5 56h-266q-31 0 -31 -30v-328z" />
<glyph unicode="&#xb0;" horiz-adv-x="901" d="M113 1105.5q0 147.5 96 248t241.5 100.5t241.5 -100.5t96 -248t-96 -247.5t-241.5 -100t-241.5 100t-96 247.5zM174 1106q0 -123 80 -205t196.5 -82t196.5 82t80 205t-80 205t-196.5 82t-196.5 -82t-80 -205z" />
<glyph unicode="&#xb1;" horiz-adv-x="1046" d="M92 205q0 31 31 31h799q31 0 30.5 -31t-30.5 -31h-799q-31 0 -31 31zM92 655.5q0 30.5 31 30.5h328q31 0 30 31v338q0 31 31 30.5t31 -30.5v-338q0 -31 30 -31h349q31 0 30.5 -30.5t-30.5 -30.5h-349q-31 0 -30 -31v-256q0 -31 -31 -31t-31 31v256q0 31 -30 31h-328 q-31 0 -31 30.5z" />
<glyph unicode="&#xb2;" horiz-adv-x="821" d="M143.5 1318.5q-0.5 10.5 10.5 22.5q102 102 245 103q266 0 267 -184q0 -66 -46.5 -108t-111.5 -65l-135 -40q-158 -49 -158 -156q0 -31 31 -31h327q31 0 31 31v51q0 31 31 31t31 -31v-113q0 -31 -31 -30h-451q-30 -1 -30 30v62q0 86 70.5 141t154.5 74.5t154.5 57.5 t70.5 96q0 123 -205 122q-127 0 -202 -84q-16 -27 -43 0q-10 10 -10.5 20.5z" />
<glyph unicode="&#xb3;" horiz-adv-x="780" d="M135 913q0 8 16.5 24.5t43 -12t83 -52t115.5 -23.5q195 0 195 113q0 61 -43 97t-121 36h-133q-31 2 -31 30.5t31 28.5h133q143 0 143 114.5t-184 112.5q-119 0 -190 -75q-20 -20 -37 -4t-18 26t12 21q33 39 99 66.5t160.5 27.5t157 -47t62.5 -137.5t-103 -133.5 q123 -45 123 -163q0 -82 -64.5 -128.5t-165 -46.5t-170 31t-104.5 72q-10 10 -10 22z" />
<glyph unicode="&#xb4;" horiz-adv-x="249" d="M0 1175.5q0 10.5 8 20.5l182 260q10 18 23 19q10 0 20 -11q16 -8 16.5 -18t-7.5 -23l-185 -262q-10 -12 -22 -12q-10 0 -22.5 8t-12.5 18.5z" />
<glyph unicode="&#xb5;" horiz-adv-x="1409" d="M75 993.5q0 30.5 31 30.5h205q31 0 31 -31v-622q0 -164 92 -247t250 -83t293 143q55 59 102 144v604q0 31 -30 31h-144q-31 0 -31 30.5t31 30.5h205q31 0 31 -31v-901q0 -31 30 -31h144q31 0 31 -30.5t-31 -30.5h-205q-31 0 -31 31v114q0 49 -32 21q-166 -186 -357 -186 q-246 0 -348 163v-522q0 -31 -30.5 -31t-30.5 31v1311q0 31 -31 31h-144q-31 0 -31 30.5z" />
<glyph unicode="&#xb6;" horiz-adv-x="1505" d="M76 942q0 233 135 362.5t367 129.5h829q31 0 31 -31t-31 -31h-205q-31 0 -31 -31v-1720q0 -31 -30 -31q-31 0 -31 31v1720q0 31 -31 31h-286q-31 0 -31 -31v-1720q0 -31 -31 -31t-31 31v799q0 31 -30 31h-92q-229 0 -367 129q-135 129 -135 362zM137 942 q0 -211 116 -320.5t325 -109.5h92q31 0 30 31v798q0 31 -30 31h-92q-209 0 -325 -109.5t-116 -320.5z" />
<glyph unicode="&#xb7;" horiz-adv-x="516" d="M156 717q0 47 27.5 74.5t74.5 27.5t74.5 -27.5t27.5 -74.5t-27.5 -75t-74.5 -28t-74.5 28t-27.5 75z" />
<glyph unicode="&#xb8;" horiz-adv-x="235" d="M0 -338q0 31 31 31q143 0 143 82q0 35 -25.5 58.5t-76.5 23.5h-31q-31 0 -31 30v113q0 31 31 31t31 -31v-82q76 0 121 -41q43 -37 43 -102.5t-50.5 -104.5t-154.5 -39q-31 0 -31 31z" />
<glyph unicode="&#xb9;" horiz-adv-x="632" d="M119 1266.5q0 11.5 14 21.5l152 125q43 31 55 31q41 0 41 -31v-522q0 -31 31 -31h82q31 0 30.5 -30.5t-30.5 -30.5h-287q-31 0 -31 30.5t31 30.5h82q31 0 30 31v450q0 20 -28 0l-117 -100q-23 -20 -39 -3t-16 28.5z" />
<glyph unicode="&#xba;" horiz-adv-x="811" d="M119 1116.5q0 149.5 81 238.5t205.5 89t205.5 -89t81 -238.5t-81 -239t-205.5 -89.5t-205.5 89.5t-81 239zM180 1116q0 -127 61.5 -196.5t164 -69.5t164 69.5t61.5 196.5t-61.5 196.5t-164 69.5t-164 -69.5t-61.5 -196.5z" />
<glyph unicode="&#xbb;" horiz-adv-x="1021" d="M141 901q2 8 18.5 24.5t37.5 -3.5l381 -379q16 -16 16 -33q0 -16 -19 -35l-374 -373q-20 -20 -37 -3.5t-18 26.5t12 20l346 347q18 18 0 36l-350 351q-12 10 -13 22zM399.5 992.5q-0.5 11.5 10 21.5t20.5 10t23 -10l473 -471q16 -16 16 -33q0 -16 -18 -35l-467 -465 q-10 -10 -21.5 -10t-22 10t-10.5 21.5t11 21.5l438 439q18 18 0 36l-442 443q-10 10 -10.5 21.5z" />
<glyph unicode="&#xbc;" horiz-adv-x="1376" d="M90 1268.5q0 11.5 14 21.5l152 125q43 31 55 31q41 0 41 -31v-522q0 -31 31 -31h82q31 0 31 -30.5t-31 -30.5h-287q-31 0 -31 30.5t31 30.5h82q31 0 31 31v450q0 20 -29 0l-117 -100q-23 -23 -39 -4.5t-16 30zM205 25.5q0 11.5 8 21.5l887 1370q10 14 21.5 14.5 t19.5 -4.5q29 -20 8 -41l-885 -1372q-16 -23 -37.5 -11.5t-21.5 23zM705 180v10q0 8 6 15q102 88 153 181t51 239q0 31 31 30.5t31 -30.5q0 -133 -44 -237.5t-110 -162.5h267q31 0 30 31v217q0 31 31 31t31 -31v-217q0 -31 30 -31h62q31 0 31 -30.5t-31 -30.5h-62 q-31 0 -30 -31v-113q0 -31 -31 -30.5t-31 30.5v113q0 31 -30 31h-359q-20 0 -26 16z" />
<glyph unicode="&#xbd;" horiz-adv-x="1380" d="M80 1268.5q0 11.5 14 21.5l152 125q43 31 55 31q41 0 41 -31v-522q0 -31 31 -31h82q31 0 30.5 -30.5t-30.5 -30.5h-287q-31 0 -31 30.5t31 30.5h82q31 0 31 31v450q0 20 -29 0l-117 -100q-20 -23 -37.5 -4.5t-17.5 30zM195 25.5q0 11.5 8 21.5l887 1370q10 14 21 14.5 t19 -4.5q29 -20 9 -41l-885 -1372q-10 -14 -21.5 -14t-24.5 7t-13 18.5zM758 521q0 11 10 22q102 102 246 102q266 0 266 -184q0 -66 -46 -108t-112 -62l-133 -43q-160 -49 -160 -156q0 -31 31 -31h328q31 0 31 31v51q0 31 30.5 31t30.5 -31v-112q0 -31 -31 -31h-450 q-31 0 -31 31v61q0 86 70.5 141.5t154.5 75t155 57t71 95.5q0 123 -205 123q-127 0 -203 -84q-16 -27 -43 0q-10 10 -10 21z" />
<glyph unicode="&#xbe;" horiz-adv-x="1445" d="M104 913q-2 8 14.5 24.5t39.5 -3.5q33 -35 89 -59.5t115 -24.5q195 0 195 113q0 61 -43 97t-121 36h-133q-31 2 -31 30.5t31 28.5h133q143 0 143.5 114.5t-184.5 112.5q-119 0 -190 -75q-23 -20 -39.5 -4t-15 26t11.5 21q33 39 99.5 66.5t160.5 27.5t156.5 -47 t62.5 -137.5t-102 -133.5q123 -45 122 -163q0 -82 -64.5 -128.5t-164.5 -46.5t-169.5 31t-104.5 72q-10 12 -11 22zM279 25q0 12 8 22l887 1370q10 14 22 14.5t18 -4.5q29 -20 9 -41l-885 -1372q-18 -23 -38.5 -10.5t-20.5 21.5zM778 180v10q0 8 6 15q102 88 153.5 181 t51.5 239q0 31 31 30.5t31 -30.5q0 -133 -44 -237.5t-110 -162.5h266q31 0 31 31v217q0 31 30.5 31t30.5 -31v-217q0 -31 31 -31h62q31 0 30.5 -30.5t-30.5 -30.5h-62q-31 0 -31 -31v-113q0 -31 -30.5 -30.5t-30.5 30.5v113q0 31 -31 31h-358q-21 0 -27 16z" />
<glyph unicode="&#xbf;" horiz-adv-x="1089" d="M82 -44q0 155 88 253q39 43 86 80l92 71q47 37 86 74q88 86 88 211q0 31 31 31t31 -31q0 -104 -45 -181t-109 -126l-131 -94q-156 -113 -156 -285q0 -131 111 -229.5t300 -98.5t299 93.5t110 255.5q0 31 30.5 30.5t30.5 -30.5q0 -186 -125 -298t-345 -112t-346 115.5 t-126 270.5zM450.5 942q0.5 45 29 73.5t73.5 28.5t73.5 -28.5t28.5 -73.5t-28.5 -73.5t-73.5 -29t-74 28.5t-28.5 74z" />
<glyph unicode="&#xc0;" horiz-adv-x="1482" d="M-20 31q0 31 30 30h133q25 0 41 31l512 1331q8 31 45 31t45 -31l512 -1331q14 -31 41 -31h134q31 0 30 -30q0 -31 -30 -31h-390q-31 0 -30 31q0 31 30 30h123q35 0 21 31l-146 379q-12 29 -49 29h-581q-37 0 -50 -29l-145 -379q-16 -31 20 -31h123q31 0 31 -30 q0 -31 -31 -31h-389q-31 0 -30 31zM449 592q-16 -31 22 -31h541q37 0 22 31l-280 729q-4 12 -12.5 12t-12.5 -12zM518 1844q0 11 17 20q10 10 21 10t22 -19l182 -260q8 -10 8 -20t-14 -21q-12 -6 -23.5 -6t-19.5 13l-185 262q-8 10 -8 21z" />
<glyph unicode="&#xc1;" horiz-adv-x="1482" d="M-20 31q0 31 30 30h133q25 0 41 31l512 1331q8 31 45 31t45 -31l512 -1331q14 -31 41 -31h134q31 0 30 -30q0 -31 -30 -31h-390q-31 0 -30 31q0 31 30 30h123q35 0 21 31l-146 379q-12 29 -49 29h-581q-37 0 -50 -29l-145 -379q-16 -31 20 -31h123q31 0 31 -30 q0 -31 -31 -31h-389q-31 0 -30 31zM449 592q-16 -31 22 -31h541q37 0 22 31l-280 729q-4 12 -12.5 12t-12.5 -12zM711 1575q0 10 8 20l182 260q10 18 21.5 18.5t21.5 -9.5q16 -8 16.5 -19.5t-8.5 -21.5l-184 -262q-10 -12 -21.5 -12.5t-21.5 5.5q-14 10 -14 21z" />
<glyph unicode="&#xc2;" horiz-adv-x="1482" d="M-20 31q0 31 30 30h133q25 0 41 31l512 1331q8 31 45 31t45 -31l512 -1331q14 -31 41 -31h134q31 0 30 -30q0 -31 -30 -31h-390q-31 0 -30 31q0 31 30 30h123q35 0 21 31l-146 379q-12 29 -49 29h-581q-37 0 -50 -29l-145 -379q-16 -31 20 -31h123q31 0 31 -30 q0 -31 -31 -31h-389q-31 0 -30 31zM449 592q-16 -31 22 -31h541q37 0 22 31l-280 729q-4 12 -12.5 12t-12.5 -12zM475 1537.5q0 11.5 10 21.5l220 223q18 18 34 18t33 -16l225 -225q12 -10 12.5 -21.5t-11 -22t-22.5 -10.5t-22 11l-196 194q-18 18 -37 0l-193 -194 q-10 -10 -20 -10.5t-21.5 10t-11.5 22z" />
<glyph unicode="&#xc3;" horiz-adv-x="1482" d="M-20 31q0 31 30 30h133q25 0 41 31l512 1331q8 31 45 31t45 -31l512 -1331q14 -31 41 -31h134q31 0 30 -30q0 -31 -30 -31h-390q-31 0 -30 31q0 31 30 30h123q35 0 21 31l-146 379q-12 29 -49 29h-581q-37 0 -50 -29l-145 -379q-16 -31 20 -31h123q31 0 31 -30 q0 -31 -31 -31h-389q-31 0 -30 31zM449 592q-16 -31 22 -31h541q37 0 22 31l-280 729q-4 12 -12.5 12t-12.5 -12zM485 1559q0 88 40 136t93 48q94 0 137.5 -77t98.5 -77q82 0 82 123q0 31 30.5 31t30.5 -31q0 -90 -39.5 -137t-93.5 -47q-94 0 -137 76.5t-98 76.5 q-82 0 -82 -122q0 -31 -31 -31t-31 31z" />
<glyph unicode="&#xc4;" horiz-adv-x="1482" d="M-20 31q0 31 30 30h133q25 0 41 31l512 1331q8 31 45 31t45 -31l512 -1331q14 -31 41 -31h134q31 0 30 -30q0 -31 -30 -31h-390q-31 0 -30 31q0 31 30 30h123q35 0 21 31l-146 379q-12 29 -49 29h-581q-37 0 -50 -29l-145 -379q-16 -31 20 -31h123q31 0 31 -30 q0 -31 -31 -31h-389q-31 0 -30 31zM449 592q-16 -31 22 -31h541q37 0 22 31l-280 729q-4 12 -12.5 12t-12.5 -12zM495.5 1607.5q0.5 34.5 24 58.5t58 24t58 -24t23.5 -58.5t-23.5 -58t-58 -24t-59.5 22.5q-23 25 -22.5 59.5zM823 1607.5q0 34.5 23.5 58.5t58.5 24t58.5 -24 t23.5 -58.5t-23.5 -58t-58 -24t-59.5 22.5q-23 25 -23 59.5z" />
<glyph unicode="&#xc5;" horiz-adv-x="1484" d="M-20 31q0 31 30 30h133q25 0 41 31l504 1309q-109 37 -108 155q0 70 45 117t116 47q72 0 119 -47t47 -108q0 -129 -112 -164l503 -1309q14 -31 41 -31h134q31 0 30 -30q0 -31 -30 -31h-390q-31 0 -30 31q0 31 30 30h123q35 0 21 31l-146 379q-12 29 -49 29h-581 q-37 0 -50 -29l-145 -379q-16 -31 20 -31h123q31 0 31 -30q0 -31 -31 -31h-389q-31 0 -30 31zM444 575q0 -14 27 -14h541q27 0 26 17q0 6 -4 14l-280 729q-4 12 -12.5 12t-12.5 -12l-280 -729q-4 -8 -5 -17zM641 1556q0 -47 29.5 -74.5t70.5 -27.5t71 27.5t30 74.5t-30 75 t-71 28t-70.5 -27.5t-29.5 -75.5z" />
<glyph unicode="&#xc6;" horiz-adv-x="1974" d="M-49 31q0 31 31 30h133q25 0 41 31l721 1301q18 41 53 41h885q31 0 30 -31v-287q0 -31 -30 -31q-31 0 -31 31v225q0 31 -31 31h-645q-31 0 -31 -31v-553q0 -31 31 -30h461q31 0 30 30v103q0 31 31 31t31 -31v-328q0 -31 -31 -31t-31 31v103q0 31 -30 30h-461 q-31 0 -31 -30v-574q0 -31 31 -31h666q31 0 30 31v225q0 31 31 31t31 -31v-286q0 -31 -31 -31h-973q-31 0 -31 31t31 30h123q31 0 31 31v430q0 31 -31 31h-469q-37 0 -49 -29l-240 -432q-16 -31 21 -31h123q31 0 30 -30q0 -31 -30 -31h-389q-31 0 -31 31zM530 629 q0 -14 27 -15h428q31 0 31 31v696q0 31 -31 31h-22q-27 0 -41 -31l-387 -696q-4 -8 -5 -16z" />
<glyph unicode="&#xc7;" horiz-adv-x="1425" d="M121 717q0 -319 188.5 -528t494.5 -209t515 204q10 10 10 20.5t-16.5 27t-36.5 -4.5q-176 -186 -463 -186t-459 190t-172 482.5t166 486t418 193.5q184 0 352 -119q74 -53 129 -117v-143q0 -31 31 -31t31 31v389q0 31 -31 31t-31 -31v-103q0 -47 -33 -20 q-201 174 -448 174q-285 0 -465 -209t-180 -528zM721 -338q0 31 31 31q143 0 143 82q0 35 -25.5 58.5t-76.5 23.5h-31q-31 0 -31 30v113q0 31 31 31t31 -31v-82q76 0 119.5 -40t43.5 -104.5t-50 -103.5t-154 -39q-31 0 -31 31z" />
<glyph unicode="&#xc8;" horiz-adv-x="1257" d="M94 30.5q0 30.5 31 30.5h143q31 0 31 31v1249q0 31 -31 31h-143q-31 0 -31 31t31 31h973q31 0 30 -31v-287q0 -31 -30.5 -31t-30.5 31v225q0 31 -31 31h-645q-31 0 -31 -31v-553q0 -31 31 -30h461q31 0 31 30v103q0 31 30.5 31t30.5 -31v-328q0 -31 -30.5 -31t-30.5 31 v103q0 31 -31 30h-461q-31 0 -31 -30v-574q0 -31 31 -31h666q31 0 30 31v225q0 31 31 31t31 -31v-286q0 -31 -31 -31h-993q-31 0 -31 30.5zM475 1855.5q0 12.5 17 18.5q8 10 20 10t23 -18l182 -260q8 -10 8 -21q0 -10 -14 -20q-10 -6 -22.5 -6t-20.5 12l-185 262 q-8 10 -8 22.5z" />
<glyph unicode="&#xc9;" horiz-adv-x="1257" d="M94 30.5q0 30.5 31 30.5h143q31 0 31 31v1249q0 31 -31 31h-143q-31 0 -31 31t31 31h973q31 0 30 -31v-287q0 -31 -30.5 -31t-30.5 31v225q0 31 -31 31h-645q-31 0 -31 -31v-553q0 -31 31 -30h461q31 0 31 30v103q0 31 30.5 31t30.5 -31v-328q0 -31 -30.5 -31t-30.5 31 v103q0 31 -31 30h-461q-31 0 -31 -30v-574q0 -31 31 -31h666q31 0 30 31v225q0 31 31 31t31 -31v-286q0 -31 -31 -31h-993q-31 0 -31 30.5zM598 1565q0 10 8 20l182 260q10 18 22.5 18.5t20.5 -10.5q16 -6 16.5 -18t-7.5 -23l-185 -262q-8 -12 -20 -12t-23 6q-14 10 -14 21z " />
<glyph unicode="&#xca;" horiz-adv-x="1257" d="M94 30.5q0 30.5 31 30.5h143q31 0 31 31v1249q0 31 -31 31h-143q-31 0 -31 31t31 31h973q31 0 30 -31v-287q0 -31 -30.5 -31t-30.5 31v225q0 31 -31 31h-645q-31 0 -31 -31v-553q0 -31 31 -30h461q31 0 31 30v103q0 31 30.5 31t30.5 -31v-328q0 -31 -30.5 -31t-30.5 31 v103q0 31 -31 30h-461q-31 0 -31 -30v-574q0 -31 31 -31h666q31 0 30 31v225q0 31 31 31t31 -31v-286q0 -31 -31 -31h-993q-31 0 -31 30.5zM375 1590.5q0 11.5 10 21.5l219 223q18 18 35 18q16 0 33 -16l225 -225q10 -10 10 -21.5t-10 -21.5t-21.5 -10t-21.5 10l-197 194 q-18 18 -36 0l-193 -194q-10 -10 -21.5 -10t-21.5 10t-10 21.5z" />
<glyph unicode="&#xcb;" horiz-adv-x="1257" d="M94 30.5q0 30.5 31 30.5h143q31 0 31 31v1249q0 31 -31 31h-143q-31 0 -31 31t31 31h973q31 0 30 -31v-287q0 -31 -30.5 -31t-30.5 31v225q0 31 -31 31h-645q-31 0 -31 -31v-553q0 -31 31 -30h461q31 0 31 30v103q0 31 30.5 31t30.5 -31v-328q0 -31 -30.5 -31t-30.5 31 v103q0 31 -31 30h-461q-31 0 -31 -30v-574q0 -31 31 -31h666q31 0 30 31v225q0 31 31 31t31 -31v-286q0 -31 -31 -31h-993q-31 0 -31 30.5zM416 1659q0 35 23.5 58.5t58 23.5t58.5 -23.5t24 -58.5t-24 -58.5t-58.5 -23.5t-58 23.5t-23.5 58.5zM743 1659q0 35 24 58.5 t58.5 23.5t58 -23.5t23.5 -58.5t-23.5 -58.5t-58 -23.5t-58.5 23.5t-24 58.5z" />
<glyph unicode="&#xcc;" horiz-adv-x="659" d="M94 30.5q0 30.5 31 30.5h143q31 0 31 31v1249q0 31 -31 31h-143q-31 0 -31 31t31 31h410q31 0 30.5 -31t-30.5 -31h-144q-31 0 -31 -31v-1249q0 -31 31 -31h144q31 0 30.5 -30.5t-30.5 -30.5h-410q-31 0 -31 30.5zM102.5 1834.5q-0.5 12.5 16.5 18.5q8 10 20.5 10.5 t22.5 -18.5l182 -260q8 -10 8 -20t-14 -21q-10 -6 -22.5 -6t-20.5 12l-184 262q-8 10 -8.5 22.5z" />
<glyph unicode="&#xcd;" horiz-adv-x="659" d="M94 30.5q0 30.5 31 30.5h143q31 0 31 31v1249q0 31 -31 31h-143q-31 0 -31 31t31 31h410q31 0 30.5 -31t-30.5 -31h-144q-31 0 -31 -31v-1249q0 -31 31 -31h144q31 0 30.5 -30.5t-30.5 -30.5h-410q-31 0 -31 30.5zM287 1565q0 10 8 20l182 260q10 18 22.5 18.5 t20.5 -10.5q16 -6 16.5 -18t-8.5 -23l-184 -262q-8 -12 -20.5 -12t-22.5 6q-14 10 -14 21z" />
<glyph unicode="&#xce;" horiz-adv-x="659" d="M63 1590.5q0 11.5 11 21.5l219 223q18 18 35 18q16 0 32 -16l226 -225q10 -10 10 -21.5t-15.5 -27t-37.5 5.5l-197 194q-18 18 -37 0l-192 -194q-23 -20 -38.5 -5t-15.5 26.5zM94 30.5q0 30.5 31 30.5h143q31 0 31 31v1249q0 31 -31 31h-143q-31 0 -31 31t31 31h410 q31 0 30.5 -31t-30.5 -31h-144q-31 0 -31 -31v-1249q0 -31 31 -31h144q31 0 30.5 -30.5t-30.5 -30.5h-410q-31 0 -31 30.5z" />
<glyph unicode="&#xcf;" horiz-adv-x="659" d="M84 1659q0 35 23.5 58.5t58.5 23.5t58.5 -23.5t23.5 -58.5t-23.5 -58.5t-58.5 -23.5t-58.5 23.5t-23.5 58.5zM94 30.5q0 30.5 31 30.5h143q31 0 31 31v1249q0 31 -31 31h-143q-31 0 -31 31t31 31h410q31 0 30.5 -31t-30.5 -31h-144q-31 0 -31 -31v-1249q0 -31 31 -31h144 q31 0 30.5 -30.5t-30.5 -30.5h-410q-31 0 -31 30.5zM412 1659q0 35 23.5 58.5t58 23.5t58 -23.5t23.5 -58.5t-23.5 -58.5t-58 -23.5t-58 23.5t-23.5 58.5z" />
<glyph unicode="&#xd0;" horiz-adv-x="1503" d="M94 30.5q0 30.5 31 30.5h143q31 0 31 31v563q0 31 -31 31h-143q-31 0 -31 31t31 31h143q31 0 31 30v563q0 31 -31 31h-143q-31 0 -31 31t31 31h573q309 0 497.5 -205t188.5 -512t-188 -512t-498 -205h-573q-31 0 -31 30.5zM360 92q0 -31 31 -31h307q279 0 452 186.5 t173 469t-173 469t-452 186.5h-307q-31 0 -31 -31v-563q0 -31 31 -30h144q31 0 30.5 -31t-30.5 -31h-144q-31 0 -31 -31v-563z" />
<glyph unicode="&#xd1;" horiz-adv-x="1607" d="M94 30.5q0 30.5 31 30.5h143q31 0 31 31v1249q0 31 -31 31h-143q-31 0 -31 31t31 31h225q33 0 51 -31l840 -1280q4 -8 12.5 -7t8.5 17v1208q0 31 -31 31h-123q-31 0 -31 31t31 31h389q31 0 31 -31t-31 -31h-143q-31 0 -31 -31v-1249q0 -31 31 -31h143q31 0 31 -30.5 t-31 -30.5h-225q-33 0 -51 31l-840 1280q-4 8 -12.5 7t-8.5 -18v-1208q0 -31 31 -31h123q31 0 31 -30.5t-31 -30.5h-389q-31 0 -31 30.5zM535 1608q0 88 39.5 136t93.5 48q94 0 137 -77t98 -77q82 0 82 123q0 31 31 31t31 -31q0 -90 -40 -137t-94 -47q-94 0 -137 77t-98 77 q-82 0 -82 -123q0 -31 -30.5 -31t-30.5 31z" />
<glyph unicode="&#xd2;" horiz-adv-x="1609" d="M119 716.5q0 321.5 188.5 529.5t497.5 208t497.5 -208t188.5 -529.5t-188.5 -529t-497.5 -207.5t-497.5 207.5t-188.5 529zM180 717q0 -295 172 -485.5t452.5 -190.5t453 190.5t172.5 485.5t-172.5 485.5t-453 190.5t-452.5 -190.5t-172 -485.5zM598 1855.5 q0 12.5 16 18.5q8 10 20.5 10t22.5 -18l183 -260q8 -10 8 -21q0 -10 -14 -20q-10 -6 -22.5 -6t-20.5 12l-185 262q-8 10 -8 22.5z" />
<glyph unicode="&#xd3;" horiz-adv-x="1609" d="M119 716.5q0 321.5 188.5 529.5t497.5 208t497.5 -208t188.5 -529.5t-188.5 -529t-497.5 -207.5t-497.5 207.5t-188.5 529zM180 717q0 -295 172 -485.5t452.5 -190.5t453 190.5t172.5 485.5t-172.5 485.5t-453 190.5t-452.5 -190.5t-172 -485.5zM762 1585q0 11 8 21 l182 260q10 18 22.5 18t20.5 -10q16 -6 16.5 -18.5t-7.5 -22.5l-185 -262q-8 -12 -20.5 -12t-22.5 6q-14 10 -14 20z" />
<glyph unicode="&#xd4;" horiz-adv-x="1609" d="M119 716.5q0 321.5 188.5 529.5t497.5 208t497.5 -208t188.5 -529.5t-188.5 -529t-497.5 -207.5t-497.5 207.5t-188.5 529zM180 717q0 -295 172 -485.5t452.5 -190.5t453 190.5t172.5 485.5t-172.5 485.5t-453 190.5t-452.5 -190.5t-172 -485.5zM539 1590.5 q0 11.5 10 21.5l219 223q18 18 35 18q16 0 33 -16l225 -225q10 -10 10 -21.5t-10 -21.5t-21.5 -10t-21.5 10l-197 194q-18 18 -37 0l-192 -194q-10 -10 -21.5 -10t-21.5 10t-10 21.5z" />
<glyph unicode="&#xd5;" horiz-adv-x="1609" d="M119 716.5q0 321.5 188.5 529.5t497.5 208t497.5 -208t188.5 -529.5t-188.5 -529t-497.5 -207.5t-497.5 207.5t-188.5 529zM180 717q0 -295 172 -485.5t452.5 -190.5t453 190.5t172.5 485.5t-172.5 485.5t-453 190.5t-452.5 -190.5t-172 -485.5zM549 1608q0 88 41 137 q41 47 94 47q94 0 136 -77t98 -77q82 0 81 123q0 31 31 31t31 -31q0 -90 -41 -137t-94 -47q-94 0 -136 77t-98 77q-82 0 -82 -123q0 -31 -30.5 -31t-30.5 31z" />
<glyph unicode="&#xd6;" horiz-adv-x="1609" d="M119 716.5q0 321.5 188.5 529.5t497.5 208t497.5 -208t188.5 -529.5t-188.5 -529t-497.5 -207.5t-497.5 207.5t-188.5 529zM180 717q0 -295 172 -485.5t452.5 -190.5t453 190.5t172.5 485.5t-172.5 485.5t-453 190.5t-452.5 -190.5t-172 -485.5zM559 1679.5 q0 34.5 23.5 58t58.5 23.5t58.5 -23.5t23.5 -58t-23.5 -58.5t-58.5 -24t-58.5 24t-23.5 58.5zM887 1679.5q0 34.5 23.5 58t58.5 23.5t58.5 -23.5t23.5 -58t-23.5 -58.5t-58.5 -24t-58.5 24t-23.5 58.5z" />
<glyph unicode="&#xd7;" horiz-adv-x="935" d="M150 999q0 8 10 20.5t21.5 12.5t21.5 -10l239 -240q20 -20 43 0l246 246q10 10 23 10q8 0 20 -10t12 -21.5t-10 -21.5l-248 -246q-20 -23 0 -43l240 -239q10 -10 10 -21.5t-10 -22t-21.5 -10.5t-21.5 11l-240 237q-23 20 -43 0l-231 -231q-10 -10 -21.5 -10t-21.5 10 t-10 21.5t10 21.5l231 231q20 25 0 45l-239 238q-10 10 -10 22z" />
<glyph unicode="&#xd8;" horiz-adv-x="1609" d="M119 717q0 322 188.5 529.5t497.5 207.5q207 0 373 -104l45 67q16 23 41 10q29 -20 8 -41l-45 -69q264 -207 264 -600q0 -322 -188.5 -529.5t-497.5 -207.5q-211 0 -375 102l-43 -68q-16 -23 -43 -8.5t-8 41.5l45 70q-262 211 -262 600zM180 717q0 -352 236 -547 l729 1126q-145 96 -340 97q-281 0 -453 -190.5t-172 -485.5zM465 135q143 -94 340 -94q281 0 453 190.5t172 485.5q0 356 -238 547z" />
<glyph unicode="&#xd9;" horiz-adv-x="1589" d="M57 1403q0 31 31 31h389q31 0 31 -31t-31 -31h-123q-31 0 -30 -31v-829q0 -213 133 -342t337.5 -129t338 129t133.5 342v829q0 31 -31 31h-123q-31 0 -31 31t31 31h389q31 0 31 -31t-31 -31h-143q-31 0 -31 -31v-829q0 -236 -150.5 -384t-382 -148t-382 148t-150.5 384 v829q0 31 -31 31h-143q-31 0 -31 31zM629 1834.5q0 12.5 16 18.5q10 10 22.5 10.5t20.5 -18.5l182 -260q8 -10 9 -20q0 -10 -15 -21q-12 -6 -24.5 -6t-18.5 12l-184 262q-8 10 -8 22.5z" />
<glyph unicode="&#xda;" horiz-adv-x="1589" d="M57 1403q0 31 31 31h389q31 0 31 -31t-31 -31h-123q-31 0 -30 -31v-829q0 -213 133 -342t337.5 -129t338 129t133.5 342v829q0 31 -31 31h-123q-31 0 -31 31t31 31h389q31 0 31 -31t-31 -31h-143q-31 0 -31 -31v-829q0 -236 -150.5 -384t-382 -148t-382 148t-150.5 384 v829q0 31 -31 31h-143q-31 0 -31 31zM752 1565q0 10 8 20l182 260q8 18 20.5 18.5t22.5 -10.5q16 -6 16 -18t-8 -23l-184 -262q-10 -12 -22.5 -12t-20.5 6q-14 10 -14 21z" />
<glyph unicode="&#xdb;" horiz-adv-x="1589" d="M57 1403q0 31 31 31h389q31 0 31 -31t-31 -31h-123q-31 0 -30 -31v-829q0 -213 133 -342t337.5 -129t338 129t133.5 342v829q0 31 -31 31h-123q-31 0 -31 31t31 31h389q31 0 31 -31t-31 -31h-143q-31 0 -31 -31v-829q0 -236 -150.5 -384t-382 -148t-382 148t-150.5 384 v829q0 31 -31 31h-143q-31 0 -31 31zM528.5 1590.5q0.5 11.5 10.5 21.5l219 223q18 18 35 18q16 0 32 -16l226 -225q10 -10 10 -21.5t-10.5 -21.5t-21.5 -10t-21 10l-197 194q-18 18 -37 0l-192 -194q-10 -10 -21.5 -10t-22 10t-10 21.5z" />
<glyph unicode="&#xdc;" horiz-adv-x="1589" d="M57 1403q0 31 31 31h389q31 0 31 -31t-31 -31h-123q-31 0 -30 -31v-829q0 -213 133 -342t337.5 -129t338 129t133.5 342v829q0 31 -31 31h-123q-31 0 -31 31t31 31h389q31 0 31 -31t-31 -31h-143q-31 0 -31 -31v-829q0 -236 -150.5 -384t-382 -148t-382 148t-150.5 384 v829q0 31 -31 31h-143q-31 0 -31 31zM548.5 1659q0.5 35 24 58.5t58.5 23.5t58.5 -23.5t23.5 -58.5t-23.5 -58.5t-58.5 -24t-60 22.5q-23 25 -22.5 60zM876.5 1659q0.5 35 24 58.5t58 23.5t58 -23.5t23.5 -58.5t-23.5 -58.5t-58 -24t-59.5 22.5q-23 25 -22.5 60z" />
<glyph unicode="&#xdd;" horiz-adv-x="1284" d="M-21 1403q0 31 31 31h389q31 0 31 -31t-31 -31h-123q-16 0 -22 -9t2 -22l371 -647q14 -20 28 0l373 647q8 12 2 21.5t-22 9.5h-123q-31 0 -31 31t31 31h389q31 0 31 -31t-31 -31h-123q-33 0 -51 -31l-426 -739v-510q0 -31 31 -31h143q31 0 31 -30.5t-31 -30.5h-410 q-31 0 -30.5 30.5t30.5 30.5h144q31 0 30 31v506l-428 743q-18 31 -51 31h-123q-31 0 -31 31zM618 1565q1 10 9 20l182 260q10 18 22.5 18.5t20.5 -10.5q16 -6 16 -18t-8 -23l-184 -262q-8 -12 -20.5 -12t-22.5 6q-14 10 -15 21z" />
<glyph unicode="&#xde;" horiz-adv-x="1249" d="M94 31q0 31 31 30h143q31 0 31 31v1249q0 31 -31 31h-143q-31 0 -31 31t31 31h410q31 0 30 -31q0 -31 -30 -31h-144q-31 0 -31 -31v-102q0 -31 31 -31h215q264 0 413.5 -131t149.5 -360t-149.5 -360.5t-413.5 -131.5h-215q-31 0 -31 -30v-103q0 -31 31 -31h144 q31 0 30 -30q0 -31 -30 -31h-410q-31 0 -31 31zM360 317q0 -31 31 -30h215q242 0 372 112.5t130 317.5t-130 317.5t-372 112.5h-215q-31 0 -31 -31v-799z" />
<glyph unicode="&#xdf;" horiz-adv-x="1312" d="M73 30.5q0 30.5 31 30.5h144q31 0 31 31v840q0 31 -31 31h-144q-31 0 -30.5 30.5t30.5 30.5h144q31 0 31 31v20q0 182 103 280.5t260 98.5t255 -82t98 -198.5t-117.5 -190.5t-117.5 -139.5t50 -115.5t124 -89q70 -37 143 -86q172 -115 174 -287q0 -119 -96 -202.5 t-252 -83.5q-256 0 -409 204q-25 29 1.5 46.5t41.5 -3.5q135 -186 366 -186q135 0 211 64.5t76 148.5q0 152 -129 238l-117 77l-119 72q-53 33 -90 85t-37 111.5t37 103.5t81 72.5t81 65.5t37 88q0 100 -79 163t-215 63t-218 -80t-82 -238v-1044q0 -31 -31 -31h-205 q-31 0 -31 30.5z" />
<glyph unicode="&#xe0;" d="M84 285q0 135 112.5 222t297.5 87h337q31 0 31 31v82q0 119 -90 197.5t-221 78.5t-215 -36t-118 -62.5t-51 -2t5 41.5q148 120 371 120q172 0 276.5 -97t104.5 -240v-615q0 -31 30 -31h144q31 0 30 -30q0 -31 -30 -31h-205q-31 0 -31 31v114q0 20 -8 28.5t-25 -7.5 q-55 -70 -153 -128t-205 -58q-190 0 -288.5 85t-98.5 220zM145 285.5q0 -107.5 79 -176t239 -68.5q199 0 350 201q27 35 49 75v185q0 31 -31 30h-337q-178 0 -263.5 -69.5t-85.5 -177zM340 1465.5q0 11.5 16 19.5q10 10 21.5 10t21.5 -18l183 -260q8 -10 8 -21 q0 -10 -15 -20q-10 -6 -21 -6.5t-22 12.5l-184 262q-8 10 -8 21.5z" />
<glyph unicode="&#xe1;" d="M84 285q0 135 112.5 222t297.5 87h337q31 0 31 31v82q0 119 -90 197.5t-221 78.5t-215 -36t-118 -62.5t-51 -2t5 41.5q148 120 371 120q172 0 276.5 -97t104.5 -240v-615q0 -31 30 -31h144q31 0 30 -30q0 -31 -30 -31h-205q-31 0 -31 31v114q0 20 -8 28.5t-25 -7.5 q-55 -70 -153 -128t-205 -58q-190 0 -288.5 85t-98.5 220zM145 285.5q0 -107.5 79 -176t239 -68.5q199 0 350 201q27 35 49 75v185q0 31 -31 30h-337q-178 0 -263.5 -69.5t-85.5 -177zM504 1196q0 11 8 21l182 260q10 18 21.5 18t21.5 -10q16 -8 16.5 -19.5t-8.5 -21.5 l-184 -262q-10 -12 -21.5 -12.5t-21.5 6.5q-14 10 -14 20z" />
<glyph unicode="&#xe2;" d="M84 285q0 135 112.5 222t297.5 87h337q31 0 31 31v82q0 119 -90 197.5t-221 78.5t-215 -36t-118 -62.5t-51 -2t5 41.5q148 120 371 120q172 0 276.5 -97t104.5 -240v-615q0 -31 30 -31h144q31 0 30 -30q0 -31 -30 -31h-205q-31 0 -31 31v114q0 20 -8 28.5t-25 -7.5 q-55 -70 -153 -128t-205 -58q-190 0 -288.5 85t-98.5 220zM145 285.5q0 -107.5 79 -176t239 -68.5q199 0 350 201q27 35 49 75v185q0 31 -31 30h-337q-178 0 -263.5 -69.5t-85.5 -177zM281 1179.5q0 10.5 10 22.5l219 223q18 18 35 19q16 0 33 -17l225 -225q10 -12 10 -22.5 t-10 -20.5t-21.5 -10t-21.5 10l-197 195q-18 18 -37 0l-192 -195q-12 -10 -22.5 -10t-20.5 10t-10 20.5z" />
<glyph unicode="&#xe3;" d="M84 285q0 135 112.5 222t297.5 87h337q31 0 31 31v82q0 119 -90 197.5t-221 78.5t-215 -36t-118 -62.5t-51 -2t5 41.5q148 120 371 120q172 0 276.5 -97t104.5 -240v-615q0 -31 30 -31h144q31 0 30 -30q0 -31 -30 -31h-205q-31 0 -31 31v114q0 20 -8 28.5t-25 -7.5 q-55 -70 -153 -128t-205 -58q-190 0 -288.5 85t-98.5 220zM145 285.5q0 -107.5 79 -176t239 -68.5q199 0 350 201q27 35 49 75v185q0 31 -31 30h-337q-178 0 -263.5 -69.5t-85.5 -177zM291 1198q0 88 41 137q41 47 94 47q94 0 136 -76.5t97 -76.5q82 0 82 123q0 31 31 30.5 t31 -30.5q0 -90 -41 -138q-41 -47 -94 -47q-94 0 -136.5 77t-97.5 77q-82 0 -82 -123q0 -31 -30.5 -31t-30.5 31z" />
<glyph unicode="&#xe4;" d="M84 285q0 135 112.5 222t297.5 87h337q31 0 31 31v82q0 119 -90 197.5t-221 78.5t-215 -36t-118 -62.5t-51 -2t5 41.5q148 120 371 120q172 0 276.5 -97t104.5 -240v-615q0 -31 30 -31h144q31 0 30 -30q0 -31 -30 -31h-205q-31 0 -31 31v114q0 20 -8 28.5t-25 -7.5 q-55 -70 -153 -128t-205 -58q-190 0 -288.5 85t-98.5 220zM145 285.5q0 -107.5 79 -176t239 -68.5q199 0 350 201q27 35 49 75v185q0 31 -31 30h-337q-178 0 -263.5 -69.5t-85.5 -177zM321.5 1249.5q0.5 34.5 24 58t58 23.5t58 -23.5t23.5 -58.5t-23.5 -58.5t-58 -23.5 t-59.5 23q-23 25 -22.5 59.5zM649 1249.5q0 34.5 23.5 58t58.5 23.5t58.5 -23.5t23.5 -58.5t-23.5 -58.5t-58 -23.5t-59.5 23q-23 25 -23 59.5z" />
<glyph unicode="&#xe5;" d="M84 285q0 135 112.5 222t297.5 87h337q31 0 31 31v82q0 119 -90 197.5t-221 78.5t-215 -36t-118 -62.5t-51 -2t5 41.5q148 120 371 120q172 0 276.5 -97t104.5 -240v-615q0 -31 30 -31h144q31 0 30 -30q0 -31 -30 -31h-205q-31 0 -31 31v114q0 20 -8 28.5t-25 -7.5 q-55 -70 -153 -128t-205 -58q-190 0 -288.5 85t-98.5 220zM145 285.5q0 -107.5 79 -176t239 -68.5q199 0 350 201q27 35 49 75v185q0 31 -31 30h-337q-178 0 -263.5 -69.5t-85.5 -177zM383 1310.5q0 69.5 46 117t117.5 47.5t118 -47.5t46.5 -117t-46.5 -116.5t-118 -47 t-118.5 47q-45 47 -45 116.5zM444 1311q0 -47 28 -75t75 -28t74.5 28t27.5 75t-27.5 74.5t-74.5 27.5t-75 -27.5t-28 -74.5z" />
<glyph unicode="&#xe6;" horiz-adv-x="1918" d="M86 284.5q0 145.5 105.5 227.5t304.5 82h358q31 0 31 31v82q0 119 -92.5 197.5t-231.5 78.5t-223 -36t-118 -62.5t-51.5 -1.5t5.5 41q145 121 387 120q147 0 249.5 -74.5t127.5 -191.5q61 125 171 195.5t247 70.5q199 0 335 -129t136 -290v-31q0 -61 -62 -62h-788 q-31 0 -31 -30q0 -201 114 -331t302 -130q186 0 313 102q33 25 51.5 41.5t28.5 11t25.5 -22.5t-8.5 -38q-74 -63 -170.5 -109t-245 -46t-262 77.5t-166.5 214.5q-72 -127 -198 -209.5t-255 -82.5q-199 0 -294 79.5t-95 225zM147 287q0 -246 328 -246q207 0 361 201 q27 35 49 75v185q0 31 -31 30h-358q-348 0 -349 -245zM954 625q-6 -31 29 -31h752q31 0 30 31q0 135 -119.5 246.5t-293.5 111.5t-291 -131q-43 -49 -70 -99t-37 -128z" />
<glyph unicode="&#xe7;" horiz-adv-x="1146" d="M104 512q0 236 129 384t327 148t351 -153q33 -29 33 20v82q0 31 31 31t31 -31v-327q0 -31 -31 -31t-31 31v102q-166 215 -389 215q-166 0 -279 -131q-111 -133 -110.5 -344t117 -339t307.5 -128q188 0 315 102q33 25 51.5 41.5t28.5 11t20.5 -17.5t10.5 -21.5t-19 -27.5 q-68 -59 -165 -104t-246 -45q-217 0 -349.5 148t-132.5 384zM530 -338q0 31 31 31q143 0 144 82q0 35 -26 58.5t-77 23.5h-31q-31 0 -30 30v113q0 31 30.5 31t30.5 -31v-82q76 0 120 -40t44 -104.5t-50 -103.5t-155 -39q-31 0 -31 31z" />
<glyph unicode="&#xe8;" horiz-adv-x="1161" d="M106 512q0 233 132.5 382.5t346.5 149.5t349 -135t135 -325v-31q0 -61 -61 -61h-807q-35 0 -31 -31q12 -178 121.5 -299t301 -121t316.5 102q33 25 50.5 41.5t27.5 11t25.5 -22.5t-8.5 -38q-74 -63 -170.5 -109t-245.5 -46q-217 0 -349.5 149.5t-132.5 382.5zM172 578 q0 -25 29 -25h776q31 0 31 31q0 164 -120 281.5t-303.5 117.5t-298 -129t-114.5 -276zM371 1465.5q0 11.5 16 19.5q10 10 21.5 10t21.5 -18l182 -260q8 -10 9 -21q0 -10 -15 -20q-12 -6 -23.5 -6.5t-19.5 12.5l-184 262q-8 10 -8 21.5z" />
<glyph unicode="&#xe9;" horiz-adv-x="1161" d="M106 512q0 233 132.5 382.5t346.5 149.5t349 -135t135 -325v-31q0 -61 -61 -61h-807q-35 0 -31 -31q12 -178 121.5 -299t301 -121t316.5 102q33 25 50.5 41.5t27.5 11t25.5 -22.5t-8.5 -38q-74 -63 -170.5 -109t-245.5 -46q-217 0 -349.5 149.5t-132.5 382.5zM172 578 q0 -25 29 -25h776q31 0 31 31q0 164 -120 281.5t-303.5 117.5t-298 -129t-114.5 -276zM555 1196q0 11 8 21l182 260q10 18 21.5 18t21.5 -10q16 -8 16.5 -19.5t-7.5 -21.5l-185 -262q-10 -12 -21 -12.5t-22 6.5q-14 10 -14 20z" />
<glyph unicode="&#xea;" horiz-adv-x="1161" d="M106 512q0 233 132.5 382.5t346.5 149.5t349 -135t135 -325v-31q0 -61 -61 -61h-807q-35 0 -31 -31q12 -178 121.5 -299t301 -121t316.5 102q33 25 50.5 41.5t27.5 11t25.5 -22.5t-8.5 -38q-74 -63 -170.5 -109t-245.5 -46q-217 0 -349.5 149.5t-132.5 382.5zM172 578 q0 -25 29 -25h776q31 0 31 31q0 164 -120 281.5t-303.5 117.5t-298 -129t-114.5 -276zM311.5 1180.5q0.5 11.5 10.5 21.5l219 223q18 18 34 19q16 0 33 -17l226 -225q10 -10 10 -21.5t-10.5 -21.5t-21.5 -10t-21 10l-197 195q-18 18 -37 0l-192 -195q-10 -10 -21.5 -10 t-22 10t-10 21.5z" />
<glyph unicode="&#xeb;" horiz-adv-x="1161" d="M106 512q0 233 132.5 382.5t346.5 149.5t349 -135t135 -325v-31q0 -61 -61 -61h-807q-35 0 -31 -31q12 -178 121.5 -299t301 -121t316.5 102q33 25 50.5 41.5t27.5 11t25.5 -22.5t-8.5 -38q-74 -63 -170.5 -109t-245.5 -46q-217 0 -349.5 149.5t-132.5 382.5zM172 578 q0 -25 29 -25h776q31 0 31 31q0 164 -120 281.5t-303.5 117.5t-298 -129t-114.5 -276zM331.5 1270q0.5 35 24 58.5t58.5 23.5t58.5 -23.5t23.5 -58.5t-23.5 -58.5t-58.5 -24t-60 22.5q-23 25 -22.5 60zM659 1270q0 35 24 58.5t58.5 23.5t58 -23.5t23.5 -58.5t-23.5 -58.5 t-58 -24t-59.5 22.5q-23 25 -23 60z" />
<glyph unicode="&#xec;" horiz-adv-x="585" d="M75.5 993.5q0.5 30.5 30.5 30.5h205q31 0 31 -31v-901q0 -31 31 -31h143q31 0 31 -30.5t-31 -30.5h-410q-30 0 -30 30.5t30 30.5h144q31 0 31 31v840q0 31 -31 31h-144q-31 0 -30.5 30.5zM84 1466.5q0 12.5 16 18.5q10 10 22.5 10t20.5 -18l183 -260q8 -10 8 -21 q0 -10 -15 -20q-12 -6 -24 -6.5t-19 12.5l-184 262q-8 10 -8 22.5z" />
<glyph unicode="&#xed;" horiz-adv-x="585" d="M75.5 993.5q0.5 30.5 30.5 30.5h205q31 0 31 -31v-901q0 -31 31 -31h143q31 0 31 -30.5t-31 -30.5h-410q-30 0 -30 30.5t30 30.5h144q31 0 31 31v840q0 31 -31 31h-144q-31 0 -30.5 30.5zM248 1196q0 11 8 21l182 260q8 18 20.5 18t22.5 -10q16 -6 16.5 -18.5t-8.5 -22.5 l-184 -262q-10 -12 -22.5 -12.5t-20.5 6.5q-14 10 -14 20z" />
<glyph unicode="&#xee;" horiz-adv-x="585" d="M25 1180.5q0 11.5 10 21.5l219 223q18 18 35 19q16 0 33 -17l225 -225q10 -10 10 -21.5t-16.5 -26.5t-36.5 5l-197 195q-18 18 -37 0l-192 -195q-20 -20 -36.5 -5t-16.5 26.5zM75.5 993.5q0.5 30.5 30.5 30.5h205q31 0 31 -31v-901q0 -31 31 -31h143q31 0 31 -30.5 t-31 -30.5h-410q-30 0 -30 30.5t30 30.5h144q31 0 31 31v840q0 31 -31 31h-144q-31 0 -30.5 30.5z" />
<glyph unicode="&#xef;" horiz-adv-x="585" d="M45 1270q0 35 23.5 58.5t58.5 23.5t58.5 -23.5t23.5 -58.5t-23.5 -58.5t-58.5 -23.5t-58.5 23.5t-23.5 58.5zM75.5 993.5q0.5 30.5 30.5 30.5h205q31 0 31 -31v-901q0 -31 31 -31h143q31 0 31 -30.5t-31 -30.5h-410q-30 0 -30 30.5t30 30.5h144q31 0 31 31v840 q0 31 -31 31h-144q-31 0 -30.5 30.5zM373 1270q0 35 23.5 58.5t58 23.5t58.5 -23.5t24 -58.5t-24 -58.5t-58.5 -23.5t-58 23.5t-23.5 58.5z" />
<glyph unicode="&#xf0;" horiz-adv-x="1284" d="M111 471q0 221 147.5 346t398.5 125h318q36 0 26 31q-72 170 -200 293q-25 18 -43 -2l-115 -136q-18 -25 -43 -3t-2 44l113 134q23 23 0 34q-188 137 -416 138q-31 0 -31 30q0 31 31 31q238 0 448 -145q27 -20 45 4l127 151q8 12 21 13q12 0 22 -9q20 -23 7 -43 l-127 -151q-18 -20 4 -43q137 -135 215 -317.5t78 -381.5q0 -287 -142.5 -460.5t-377 -173.5t-369.5 135t-135 356zM172 468q0 -196 118 -311.5t322 -115.5q205 0 333 150.5t128 422.5q0 127 -31 236q-12 31 -41 31h-333q-248 0 -372 -108.5t-124 -304.5z" />
<glyph unicode="&#xf1;" horiz-adv-x="1368" d="M73 30.5q0 30.5 31 30.5h144q31 0 31 31v840q0 31 -31 31h-144q-31 0 -30.5 30.5t30.5 30.5h205q31 0 31 -31v-114q0 -20 8 -28.5t25 7.5q166 186 360.5 186t300 -105t105.5 -304v-543q0 -31 30 -31h144q31 0 30.5 -30.5t-30.5 -30.5h-389q-31 0 -31 30.5t31 30.5h123 q31 0 30 31v543q0 174 -90 261t-245.5 87t-295.5 -139q-61 -61 -106 -137v-615q0 -31 31 -31h123q31 0 30.5 -30.5t-30.5 -30.5h-390q-31 0 -31 30.5zM453 1198q0 88 39.5 136t93.5 48q94 0 137 -76.5t98 -76.5q82 0 82 123q0 31 31 30.5t31 -30.5q0 -90 -40 -137.5 t-94 -47.5q-94 0 -137 77t-98 77q-82 0 -82 -123q0 -31 -30.5 -31t-30.5 31z" />
<glyph unicode="&#xf2;" horiz-adv-x="1212" d="M104 512q0 238 139.5 385t362.5 147t362.5 -147t139.5 -385t-139.5 -385t-362.5 -147t-362.5 147t-139.5 385zM166 511q0 -214 120 -342t320.5 -128t320.5 128t120 342t-121 343t-319.5 129t-319.5 -129t-121 -343zM399.5 1465.5q-0.5 11.5 16.5 19.5q10 10 21.5 10 t21.5 -18l182 -260q8 -10 8 -21q0 -10 -14 -20q-12 -6 -23.5 -6.5t-19.5 12.5l-184 262q-8 10 -8.5 21.5z" />
<glyph unicode="&#xf3;" horiz-adv-x="1212" d="M104 512q0 238 139.5 385t362.5 147t362.5 -147t139.5 -385t-139.5 -385t-362.5 -147t-362.5 147t-139.5 385zM166 511q0 -214 120 -342t320.5 -128t320.5 128t120 342t-121 343t-319.5 129t-319.5 -129t-121 -343zM563 1196q0 11 8 21l183 260q10 18 21 18t22 -10 q16 -8 16 -19.5t-8 -21.5l-184 -262q-10 -12 -21.5 -12.5t-21.5 6.5q-14 10 -15 20z" />
<glyph unicode="&#xf4;" horiz-adv-x="1212" d="M104 512q0 238 139.5 385t362.5 147t362.5 -147t139.5 -385t-139.5 -385t-362.5 -147t-362.5 147t-139.5 385zM166 511q0 -214 120 -342t320.5 -128t320.5 128t120 342t-121 343t-319.5 129t-319.5 -129t-121 -343zM340 1180.5q0 11.5 10 21.5l219 223q18 18 35 19 q16 0 33 -17l225 -225q10 -10 10 -21.5t-10 -21.5t-21.5 -10t-21.5 10l-196 195q-18 18 -37 0l-193 -195q-10 -10 -21.5 -10t-21.5 10t-10 21.5z" />
<glyph unicode="&#xf5;" horiz-adv-x="1212" d="M104 512q0 238 139.5 385t362.5 147t362.5 -147t139.5 -385t-139.5 -385t-362.5 -147t-362.5 147t-139.5 385zM166 511q0 -214 120 -342t320.5 -128t320.5 128t120 342t-121 343t-319.5 129t-319.5 -129t-121 -343zM350 1198q0 88 40 136t93 48q94 0 137.5 -76.5 t98.5 -76.5q82 0 82 123q0 31 30.5 30.5t30.5 -30.5q0 -90 -40 -137.5t-93 -47.5q-94 0 -137 77t-98 77q-82 0 -82 -123q0 -31 -31 -31t-31 31z" />
<glyph unicode="&#xf6;" horiz-adv-x="1212" d="M104 512q0 238 139.5 385t362.5 147t362.5 -147t139.5 -385t-139.5 -385t-362.5 -147t-362.5 147t-139.5 385zM166 511q0 -214 120 -342t320.5 -128t320.5 128t120 342t-121 343t-319.5 129t-319.5 -129t-121 -343zM360 1270q0 35 24 58.5t58.5 23.5t58 -23.5t23.5 -58.5 t-23.5 -58.5t-58 -23.5t-58.5 23.5t-24 58.5zM688 1270q0 35 23.5 58.5t58.5 23.5t58.5 -23.5t23.5 -58.5t-23.5 -58.5t-58.5 -23.5t-58.5 23.5t-23.5 58.5z" />
<glyph unicode="&#xf7;" horiz-adv-x="1189" d="M164 655.5q0 30.5 31 30.5h798q31 0 31 -30.5t-31 -30.5h-798q-31 0 -31 30.5zM481 328q0 47 28 74.5t75 27.5t74.5 -27.5t27.5 -74.5t-27.5 -75t-74.5 -28t-75 28t-28 75zM481 983q0 47 28 74.5t75 27.5t74.5 -27.5t27.5 -74.5t-27.5 -74.5t-74.5 -27.5t-75 27.5 t-28 74.5z" />
<glyph unicode="&#xf8;" horiz-adv-x="1212" d="M104 512q0 238 139.5 385t362.5 147q143 0 262 -67l35 53q10 14 22.5 14t18.5 -4q29 -20 8 -41l-37 -55q193 -152 193 -432q0 -238 -139.5 -385t-362.5 -147q-147 0 -264 67l-35 -53q-8 -14 -20.5 -14t-20.5 4q-29 16 -10 43l35 55q-187 147 -187 430zM166 512 q0 -250 158 -379l512 793q-100 57 -230 57q-199 0 -319.5 -129t-120.5 -342zM375 98q100 -57 231 -57q201 0 321 128t120 343q0 258 -162 381z" />
<glyph unicode="&#xf9;" horiz-adv-x="1331" d="M22 993.5q0 30.5 31 30.5h205q31 0 31 -31v-604q0 -174 90 -261t245.5 -87t293.5 137q61 63 108 139v615q0 31 -31 31h-143q-31 0 -31 30.5t31 30.5h205q31 0 30 -31v-901q0 -31 31 -31h144q31 0 30.5 -30.5t-30.5 -30.5h-205q-31 0 -31 31v114q0 20 -8 28.5t-25 -7.5 q-166 -186 -360.5 -186t-300 105t-105.5 304v543q0 31 -30 31h-144q-31 0 -31 30.5zM451 1425.5q0 12.5 16 18.5q8 10 20.5 10t22.5 -18l182 -260q8 -10 8 -21q0 -10 -14 -20q-10 -6 -22.5 -6.5t-20.5 12.5l-184 262q-8 10 -8 22.5z" />
<glyph unicode="&#xfa;" horiz-adv-x="1331" d="M22 993.5q0 30.5 31 30.5h205q31 0 31 -31v-604q0 -174 90 -261t245.5 -87t293.5 137q61 63 108 139v615q0 31 -31 31h-143q-31 0 -31 30.5t31 30.5h205q31 0 30 -31v-901q0 -31 31 -31h144q31 0 30.5 -30.5t-30.5 -30.5h-205q-31 0 -31 31v114q0 20 -8 28.5t-25 -7.5 q-166 -186 -360.5 -186t-300 105t-105.5 304v543q0 31 -30 31h-144q-31 0 -31 30.5zM553 1155q0 11 8 21l182 260q10 18 22.5 18t20.5 -10q16 -6 16.5 -18.5t-7.5 -22.5l-185 -262q-8 -12 -20 -12.5t-23 6.5q-14 10 -14 20z" />
<glyph unicode="&#xfb;" horiz-adv-x="1331" d="M22 993.5q0 30.5 31 30.5h205q31 0 31 -31v-604q0 -174 90 -261t245.5 -87t293.5 137q61 63 108 139v615q0 31 -31 31h-143q-31 0 -31 30.5t31 30.5h205q31 0 30 -31v-901q0 -31 31 -31h144q31 0 30.5 -30.5t-30.5 -30.5h-205q-31 0 -31 31v114q0 20 -8 28.5t-25 -7.5 q-166 -186 -360.5 -186t-300 105t-105.5 304v543q0 31 -30 31h-144q-31 0 -31 30.5zM371 1179.5q0 10.5 10 22.5l219 223q18 18 35 19q16 0 33 -17l225 -225q10 -12 10 -22.5t-10 -20.5t-21.5 -10t-21.5 10l-197 195q-18 18 -37 0l-192 -195q-10 -10 -21.5 -10t-21.5 10 t-10 20.5z" />
<glyph unicode="&#xfc;" horiz-adv-x="1331" d="M22 993.5q0 30.5 31 30.5h205q31 0 31 -31v-604q0 -174 90 -261t245.5 -87t293.5 137q61 63 108 139v615q0 31 -31 31h-143q-31 0 -31 30.5t31 30.5h205q31 0 30 -31v-901q0 -31 31 -31h144q31 0 30.5 -30.5t-30.5 -30.5h-205q-31 0 -31 31v114q0 20 -8 28.5t-25 -7.5 q-166 -186 -360.5 -186t-300 105t-105.5 304v543q0 31 -30 31h-144q-31 0 -31 30.5zM391 1249.5q0 34.5 23.5 58t58.5 23.5t58.5 -23.5t23.5 -58.5t-23.5 -58.5t-58 -23.5t-59.5 23q-23 25 -23 59.5zM718.5 1249.5q0.5 34.5 24 58t58.5 23.5t58.5 -23.5t23.5 -58.5 t-23.5 -58.5t-58.5 -23.5t-60 23q-23 25 -22.5 59.5z" />
<glyph unicode="&#xfd;" horiz-adv-x="1263" d="M-2 993q0 31 31 31h389q31 0 31 -31t-31 -30h-127q-37 0 -21 -31l387 -809q10 -29 23 0l313 809q14 31 -20 31h-127q-31 0 -31 30q0 31 31 31h389q31 0 31 -31t-31 -30h-133q-27 0 -41 -31l-389 -1004q-80 -201 -132.5 -258t-100.5 -78.5t-105 -21.5q-96 0 -162 36 t-100 81q-25 25 -4.5 46t43.5 1q35 -35 87 -69t139 -34t148.5 71t120.5 226l21 54q8 27 0 49l-424 901q-16 31 -41 31h-133q-31 0 -31 30zM588 1155q0 11 8 21l182 260q10 18 21.5 18t21.5 -10q16 -8 16.5 -19.5t-8.5 -21.5l-184 -262q-10 -12 -21.5 -12.5t-21.5 6.5 q-14 10 -14 20z" />
<glyph unicode="&#xfe;" horiz-adv-x="1228" d="M-6 -379q0 31 31 31h143q31 0 31 31v1658q0 31 -31 31h-143q-31 0 -31 31t31 31h204q31 0 31 -31v-524q0 -20 8 -28.5t25 7.5q51 66 149.5 126t227.5 60q205 0 327.5 -144t122.5 -388t-147 -379q-147 -133 -406 -133h-276q-31 0 -31 -31v-286q0 -31 31 -31h164 q31 0 30 -31q0 -31 -30 -31h-430q-31 0 -31 31zM260 92q0 -31 31 -31h276q236 0 364 115t128 338t-107.5 346t-277.5 123t-309 -139q-57 -57 -105 -137v-615z" />
<glyph unicode="&#xff;" horiz-adv-x="1263" d="M-2 993q0 31 31 31h389q31 0 31 -31t-31 -30h-127q-37 0 -21 -31l387 -809q10 -29 23 0l313 809q14 31 -20 31h-127q-31 0 -31 30q0 31 31 31h389q31 0 31 -31t-31 -30h-133q-27 0 -41 -31l-389 -1004q-80 -201 -132.5 -258t-100.5 -78.5t-105 -21.5q-96 0 -162 36 t-100 81q-25 25 -4.5 46t43.5 1q35 -35 87 -69t139 -34t148.5 71t120.5 226l21 54q8 27 0 49l-424 901q-16 31 -41 31h-133q-31 0 -31 30zM374.5 1229q0.5 35 24 58.5t58.5 23.5t58.5 -23.5t23.5 -58.5t-23.5 -58.5t-58.5 -24t-60 22.5q-23 25 -22.5 60zM702 1229 q0 35 24 58.5t58.5 23.5t58 -23.5t23.5 -58.5t-23.5 -58.5t-58 -24t-59.5 22.5q-23 25 -23 60z" />
<glyph unicode="&#x152;" horiz-adv-x="1890" d="M119 717q0 307 188.5 512t497.5 205h932q31 0 30 -31v-246q0 -31 -30.5 -31t-30.5 31v184q0 31 -31 31h-645q-31 0 -31 -31v-553q0 -31 31 -30h461q31 0 31 30v103q0 31 30.5 31t30.5 -31v-328q0 -31 -30.5 -31t-30.5 31v103q0 31 -31 30h-461q-31 0 -31 -30v-574 q0 -31 31 -31h666q31 0 30 31v184q0 31 31 31t31 -31v-245q0 -31 -31 -31h-952q-309 0 -497.5 205t-188.5 512zM180 716.5q0 -282.5 173 -469t452 -186.5h102q31 0 31 31v1249q0 31 -31 31h-102q-279 0 -452 -186.5t-173 -469z" />
<glyph unicode="&#x153;" horiz-adv-x="1875" d="M104 512q0 238 139.5 385t358.5 147t359 -139q133 139 341.5 139t345 -135t136.5 -325v-31q0 -61 -62 -61h-807q-31 0 -30 -31q12 -180 121.5 -300t300 -120t315.5 102q33 25 51.5 41.5t28.5 11t25.5 -22.5t-9.5 -38q-74 -63 -170 -109t-245 -46q-213 0 -342 139 q-135 -139 -356.5 -139t-361 147t-139.5 385zM166 511q0 -214 120 -342t319.5 -128t316.5 123q-100 137 -100.5 347t100.5 347q-119 125 -316.5 125t-318.5 -129t-121 -343zM887 584q-2 -31 28 -31h777q31 0 30 31q0 164 -119.5 281.5t-303 117.5t-290 -119t-122.5 -280z " />
<glyph unicode="&#x178;" horiz-adv-x="1284" d="M-21 1403q0 31 31 31h389q31 0 31 -31t-31 -31h-123q-16 0 -22 -9t2 -22l371 -647q14 -20 28 0l373 647q8 12 2 21.5t-22 9.5h-123q-31 0 -31 31t31 31h389q31 0 31 -31t-31 -31h-123q-33 0 -51 -31l-426 -739v-510q0 -31 31 -31h143q31 0 31 -30.5t-31 -30.5h-410 q-31 0 -30.5 30.5t30.5 30.5h144q31 0 30 31v506l-428 743q-18 31 -51 31h-123q-31 0 -31 31zM395 1659q0 35 23.5 58.5t58.5 23.5t58.5 -23.5t23.5 -58.5t-23.5 -58.5t-58 -24t-59.5 22.5q-23 25 -23 60zM722.5 1659q0.5 35 24 58.5t58.5 23.5t58.5 -23.5t23.5 -58.5 t-23.5 -58.5t-58.5 -24t-60 22.5q-23 25 -22.5 60z" />
<glyph unicode="&#x2c6;" horiz-adv-x="536" d="M2 1160q0 11 10 22l219 223q18 18 35 18q16 0 33 -16l225 -225q10 -10 10.5 -21.5t-10 -22t-21.5 -10.5t-22 11l-196 194q-18 18 -37 0l-193 -194q-10 -10 -21 -10.5t-21.5 10t-10.5 21.5z" />
<glyph unicode="&#x2dc;" horiz-adv-x="512" d="M0 1178q0 88 41 137q41 47 94 47q94 0 136 -77t98 -77q82 0 82 123q0 31 30.5 31t30.5 -31q0 -90 -41 -137t-94 -47q-94 0 -136 76.5t-98 76.5q-82 0 -82 -122q0 -31 -30.5 -31t-30.5 31z" />
<glyph unicode="&#x2000;" horiz-adv-x="942" />
<glyph unicode="&#x2001;" horiz-adv-x="1884" />
<glyph unicode="&#x2002;" horiz-adv-x="942" />
<glyph unicode="&#x2003;" horiz-adv-x="1884" />
<glyph unicode="&#x2004;" horiz-adv-x="628" />
<glyph unicode="&#x2005;" horiz-adv-x="471" />
<glyph unicode="&#x2006;" horiz-adv-x="314" />
<glyph unicode="&#x2007;" horiz-adv-x="314" />
<glyph unicode="&#x2008;" horiz-adv-x="235" />
<glyph unicode="&#x2009;" horiz-adv-x="376" />
<glyph unicode="&#x200a;" horiz-adv-x="104" />
<glyph unicode="&#x2010;" d="M156 655.5q0 30.5 30 30.5h799q31 0 31 -30.5t-31 -30.5h-799q-30 0 -30 30.5z" />
<glyph unicode="&#x2011;" d="M156 655.5q0 30.5 30 30.5h799q31 0 31 -30.5t-31 -30.5h-799q-30 0 -30 30.5z" />
<glyph unicode="&#x2012;" d="M156 655.5q0 30.5 30 30.5h799q31 0 31 -30.5t-31 -30.5h-799q-30 0 -30 30.5z" />
<glyph unicode="&#x2013;" horiz-adv-x="1335" d="M156 655.5q0 30.5 30 30.5h963q31 0 31 -30.5t-31 -30.5h-963q-30 0 -30 30.5z" />
<glyph unicode="&#x2014;" horiz-adv-x="1703" d="M156 655.5q0 30.5 30 30.5h1332q31 0 30.5 -30.5t-30.5 -30.5h-1332q-30 0 -30 30.5z" />
<glyph unicode="&#x2018;" horiz-adv-x="468" d="M131 1128v31q0 106 41 181t113 106q10 6 22 6t23 -14q14 -27 -13 -39q-125 -55 -124 -189v-16q25 16 57.5 16t59 -27.5t26.5 -74.5t-27.5 -74.5t-75.5 -27.5q-102 -1 -102 122z" />
<glyph unicode="&#x2019;" horiz-adv-x="466" d="M162 1352q0 47 27.5 74.5t74.5 27.5q102 0 103 -123v-31q0 -106 -41 -181t-113 -105q-12 -6 -24.5 -6t-20.5 14q-14 27 12 39q125 55 125 188v17q-27 -16 -59.5 -16.5t-58 27.5t-25.5 75z" />
<glyph unicode="&#x201a;" horiz-adv-x="495" d="M162 82q0 47 27.5 74.5t74.5 27.5q102 0 103 -123v-30q0 -106 -41 -181t-113 -106q-12 -6 -24.5 -6t-20.5 14q-14 27 12 39q125 55 125 189v16q-27 -16 -59.5 -16t-58 27.5t-25.5 74.5z" />
<glyph unicode="&#x201c;" horiz-adv-x="755" d="M131 1128v31q0 106 41 181t113 106q10 6 22 6t23 -14q14 -27 -13 -39q-125 -55 -124 -189v-16q25 16 57.5 16t59 -27.5t26.5 -74.5t-27.5 -74.5t-75.5 -27.5q-102 -1 -102 122zM418 1128v31q0 106 41 181t112 106q10 6 22.5 6t22.5 -14q14 -27 -12 -39 q-125 -55 -125 -189v-16q25 16 57.5 16t59.5 -27.5t27 -74.5t-28 -74.5t-75 -27.5q-102 -1 -102 122z" />
<glyph unicode="&#x201d;" horiz-adv-x="753" d="M162 1352q0 47 27.5 74.5t74.5 27.5q102 0 103 -123v-31q0 -106 -41 -181t-113 -105q-12 -6 -24.5 -6t-20.5 14q-14 27 12 39q125 55 125 188v17q-27 -16 -59.5 -16.5t-58 27.5t-25.5 75zM449 1352q0 47 27.5 74.5t74.5 27.5q102 0 102 -123v-31q0 -106 -41 -181 t-112 -105q-12 -6 -24.5 -6t-20.5 14q-14 27 12 39q125 55 125 188v17q-27 -16 -59.5 -16.5t-58 27.5t-25.5 75z" />
<glyph unicode="&#x201e;" horiz-adv-x="782" d="M162 82q0 47 27.5 74.5t74.5 27.5q102 0 103 -123v-30q0 -106 -41 -181t-113 -106q-12 -6 -24.5 -6t-20.5 14q-14 27 12 39q125 55 125 189v16q-27 -16 -59.5 -16t-58 27.5t-25.5 74.5zM449 82q0 47 27.5 74.5t74.5 27.5q102 0 102 -123v-30q0 -106 -41 -181t-112 -106 q-12 -6 -24.5 -6t-20.5 14q-14 27 12 39q125 55 125 189v16q-27 -16 -59.5 -16t-58 27.5t-25.5 74.5z" />
<glyph unicode="&#x2022;" horiz-adv-x="704" d="M127 717q0 94 65.5 159.5t159.5 65.5t160 -65.5t66 -159.5t-66 -159.5t-160 -65.5t-159.5 65.5t-65.5 159.5z" />
<glyph unicode="&#x2026;" horiz-adv-x="1355" d="M145 82q0 47 28 74.5t75 27.5t74.5 -27.5t27.5 -74.5t-27.5 -74.5t-74.5 -27.5t-75 27.5t-28 74.5zM575 82q0 47 28 74.5t75 27.5t74.5 -27.5t27.5 -74.5t-27.5 -74.5t-74.5 -27.5t-75 27.5t-28 74.5zM1006 82q0 47 27.5 74.5t74.5 27.5t74.5 -27.5t27.5 -74.5 t-27.5 -74.5t-74.5 -27.5t-74.5 27.5t-27.5 74.5z" />
<glyph unicode="&#x202f;" horiz-adv-x="376" />
<glyph unicode="&#x2039;" horiz-adv-x="729" d="M80 510q0 17 16 33l473 471q10 10 21.5 10t22 -10t10.5 -21.5t-11 -21.5l-442 -443q-18 -18 0 -36l438 -439q10 -10 10 -21.5t-11 -21.5t-21.5 -10t-20.5 10l-467 465q-18 18 -18 35z" />
<glyph unicode="&#x203a;" horiz-adv-x="729" d="M104.5 992.5q-0.5 11.5 11 21.5t23 10t21.5 -10l473 -471q16 -16 16 -33q0 -16 -18 -35l-467 -465q-10 -10 -21.5 -10t-21.5 10t-10 21.5t10 21.5l438 439q18 18 0 36l-442 443q-12 10 -12.5 21.5z" />
<glyph unicode="&#x205f;" horiz-adv-x="471" />
<glyph unicode="&#x20ac;" horiz-adv-x="1583" d="M73.5 563q0.5 31 30.5 31h183q-8 51 -8 120.5t8 125.5h-142q-31 0 -30.5 30.5t30.5 30.5h152q49 246 219 399.5t411.5 153.5t444.5 -174q33 -29 33 20v103q0 31 30.5 31t30.5 -31v-389q0 -31 -30.5 -31t-30.5 31v143q-55 63 -129 117q-168 119 -365.5 119t-350 -135.5 t-202.5 -356.5h586q31 0 31 -30.5t-31 -30.5h-596q-8 -55 -8 -125t8 -121h555q31 0 31 -31t-31 -31h-545q49 -223 211.5 -357t395.5 -134q291 0 469 186q20 20 36.5 4t16.5 -26t-10 -21q-209 -205 -512 -204q-260 0 -439.5 151.5t-228.5 400.5h-193q-31 0 -30.5 31z" />
<glyph unicode="&#x2122;" horiz-adv-x="1935" d="M160 1270v133q0 31 30 31h533q31 0 31 -31v-133q0 -31 -31 -31t-31 31v71q0 31 -30 31h-144q-31 0 -31 -31v-450q0 -31 31 -31h82q31 0 31 -30.5t-31 -30.5h-287q-31 0 -30.5 30.5t30.5 30.5h82q31 0 31 31v450q0 31 -31 31h-143q-31 0 -31 -31v-71q0 -31 -30.5 -31 t-30.5 31zM815 829.5q0 30.5 31 30.5h82q31 0 30 31v450q0 31 -30 31h-82q-31 0 -31 31t31 31h158q37 0 51 -31l221 -471q20 -41 41 0l221 471q14 31 51 31h158q31 0 31 -31t-31 -31h-82q-31 0 -31 -31v-450q0 -31 31 -31h82q31 0 31 -30.5t-31 -30.5h-246q-31 0 -31 30.5 t31 30.5h41q31 0 31 31v399q0 20 -8 17q-4 0 -9 -7l-221 -471q-14 -31 -38.5 -30.5t-39.5 30.5l-221 471q-8 12 -12 6t-4 -16v-399q0 -31 31 -31h41q31 0 30.5 -30.5t-30.5 -30.5h-246q-31 0 -31 30.5z" />
<glyph unicode="&#xe000;" horiz-adv-x="1024" d="M0 0v1024h1024v-1024h-1024z" />
</font>
</defs>
</svg>
